<?xml version="1.0" encoding="UTF-8"?> <svg xmlns="http://www.w3.org/2000/svg" xmlns:xlink="http://www.w3.org/1999/xlink" style="enable-background:new 0 0 512 512;" version="1.1" viewBox="0 0 512 512" xml:space="preserve"><font><glyph unicode=" "></glyph><glyph d="M360,359l-38,0l-88,810C230,1204 228,1231 228,1248C228,1290 239,1324 262,1349C284,1374 311,1387 342,1387C373,1387 400,1374 422,1349C443,1324 454,1286 454,1236C454,1220 453,1198 450,1169M340,193C371,193 397,182 419,161C440,139 451,113 451,83C451,52 440,26 419,5C397,-17 371,-28 340,-28C309,-28 283,-17 262,5C240,26 229,52 229,83C229,113 240,139 262,161C283,182 309,193 340,193z" unicode="!"></glyph><glyph d="M576,803l-54,292l-22,121C499,1233 498,1249 498,1266C498,1308 507,1339 526,1358C545,1377 569,1387 600,1387C629,1387 653,1377 672,1358C691,1339 700,1313 700,1280C700,1223 694,1162 681,1096l-57,-293M210,803l-55,296C140,1180 133,1236 133,1265C133,1308 142,1339 160,1358C177,1377 201,1387 231,1387C260,1387 285,1377 304,1358C323,1338 333,1312 333,1279C333,1253 324,1193 307,1098l-54,-295z" unicode="&quot;"></glyph><glyph d="M115,-28l93,455l-171,0l0,82l187,0l69,343l-256,0l0,80l275,0l91,455l83,0l-91,-455l337,0l97,455l83,0l-95,-455l170,0l0,-80l-185,0l-70,-343l255,0l0,-82l-272,0l-93,-455l-81,0l91,455l-339,0l-95,-455M308,509l339,0l72,343l-341,0z" unicode="#"></glyph><glyph d="M108,334l44,0C159,243 188,173 238,124C288,75 363,46 462,37l0,584C312,714 212,796 162,867C127,918 109,979 109,1052C109,1134 140,1206 201,1267C262,1328 349,1365 462,1378l0,92l64,0l0,-92C581,1375 627,1368 664,1359C683,1354 747,1331 856,1290l0,-299l-39,0C808,1097 781,1175 735,1224C688,1273 619,1302 526,1311l0,-508C694,686 802,599 850,544C897,488 921,419 921,336C921,244 886,163 817,93C747,23 650,-17 526,-28l0,-128l-64,0l0,128C399,-25 341,-18 287,-6C233,5 173,24 108,51M462,845l0,465C395,1302 346,1281 314,1247C281,1212 265,1169 265,1117C265,1068 280,1023 309,981C338,938 389,893 462,845M526,37C576,46 614,58 641,74C678,97 708,128 730,166C751,203 762,243 762,286C762,330 749,372 723,411C696,450 631,506 526,578z" unicode="$"></glyph><glyph d="M1392,1387l-988,-1443l-89,0l988,1443M364,1387C454,1387 524,1350 574,1275C623,1200 648,1115 648,1018C648,902 620,812 564,749C508,686 441,654 362,654C309,654 261,669 217,698C173,727 138,770 112,827C85,884 72,948 72,1018C72,1088 85,1153 112,1212C139,1271 175,1315 222,1344C268,1373 315,1387 364,1387M361,1331C327,1331 297,1311 271,1271C244,1231 231,1147 231,1019C231,926 238,856 253,807C264,770 282,742 306,722C320,710 337,704 358,704C390,704 417,721 440,756C473,807 490,893 490,1013C490,1140 474,1229 441,1280C420,1314 393,1331 361,1331M1346,673C1393,673 1441,658 1488,628C1535,598 1571,554 1597,497C1622,440 1635,377 1635,308C1635,190 1607,100 1550,38C1493,-25 1426,-56 1349,-56C1300,-56 1253,-41 1208,-11C1162,19 1126,62 1100,118C1073,173 1060,237 1060,308C1060,378 1073,442 1100,500C1126,558 1162,601 1208,630C1253,659 1299,673 1346,673M1347,620C1315,620 1287,602 1264,566C1234,519 1219,431 1219,301C1219,182 1234,98 1265,51C1288,17 1315,0 1347,0C1378,0 1405,18 1429,55C1461,104 1477,187 1477,306C1477,431 1461,519 1429,569C1407,603 1380,620 1347,620z" unicode="%"></glyph><glyph d="M1045,873l420,0l0,-37C1407,831 1364,819 1337,798C1309,777 1266,713 1207,607C1148,501 1082,402 1009,310C1068,241 1121,192 1168,165C1215,137 1262,123 1309,123C1355,123 1394,136 1426,161C1458,186 1481,222 1494,271l37,-27C1506,150 1467,81 1412,36C1357,-9 1294,-31 1221,-31C1166,-31 1111,-16 1055,14C998,43 937,93 870,164C787,91 713,40 647,12C580,-17 509,-31 434,-31C324,-31 237,-2 172,57C107,116 75,186 75,267C75,348 104,428 162,509C220,589 329,672 489,758C458,827 436,884 425,929C414,973 408,1015 408,1056C408,1170 450,1257 534,1317C599,1364 674,1387 757,1387C836,1387 901,1364 951,1317C1001,1270 1026,1212 1026,1143C1026,1072 1002,1010 954,957C905,904 820,845 697,782C782,631 870,493 962,368C1079,508 1138,626 1138,722C1138,753 1128,780 1108,804C1093,822 1072,833 1045,836M663,847C746,886 808,931 849,981C890,1031 910,1087 910,1148C910,1196 895,1236 866,1267C836,1298 799,1314 755,1314C697,1314 653,1294 624,1254C594,1213 579,1174 579,1135C579,1102 585,1066 596,1026C607,985 630,926 663,847M818,222C730,342 669,430 635,485C601,540 564,609 523,691C443,645 383,594 343,539C302,484 282,424 282,359C282,288 305,225 351,171C397,117 459,90 537,90C579,90 620,98 659,115C698,132 751,167 818,222z" unicode="&amp;"></glyph><glyph d="M158,803l-54,296C89,1181 81,1236 81,1265C81,1308 90,1339 107,1358C124,1377 148,1387 178,1387C208,1387 233,1377 253,1358C272,1338 282,1312 282,1280C282,1255 273,1195 256,1098l-54,-295z" unicode="'"></glyph><glyph d="M636,-401l0,-37C535,-387 451,-328 384,-260C288,-163 214,-49 162,82C110,213 84,350 84,491C84,698 135,886 237,1057C339,1227 472,1349 636,1422l0,-42C554,1335 487,1273 434,1194C381,1115 342,1016 316,895C290,774 277,648 277,517C277,374 288,245 310,128C327,36 348,-38 373,-93C398,-149 431,-203 473,-254C514,-305 569,-354 636,-401z" unicode="("></glyph><glyph d="M46,1380l0,42C147,1372 232,1313 299,1245C394,1148 468,1034 520,903C572,772 598,635 598,493C598,286 547,98 446,-72C344,-243 211,-365 46,-438l0,37C128,-355 196,-293 249,-214C302,-136 341,-36 367,85C392,206 405,332 405,463C405,605 394,735 372,852C355,944 335,1018 310,1073C285,1128 251,1182 210,1233C169,1284 114,1333 46,1380z" unicode=")"></glyph><glyph d="M494,1044C491,1090 482,1136 466,1181C443,1246 432,1291 432,1316C432,1351 440,1377 457,1395C473,1413 493,1422 517,1422C538,1422 556,1413 571,1395C586,1377 594,1351 594,1318C594,1288 585,1246 568,1193C550,1139 539,1089 535,1044C572,1067 605,1096 634,1129C679,1182 713,1214 735,1227C757,1240 779,1246 802,1246C824,1246 843,1239 858,1224C873,1209 880,1191 880,1170C880,1145 869,1123 847,1104C825,1085 770,1065 682,1046C631,1035 588,1022 554,1007C589,989 631,975 681,966C762,951 815,933 840,911C865,889 877,865 877,839C877,819 870,802 855,787C840,772 822,765 802,765C782,765 760,772 736,786C711,800 678,831 637,880C610,913 576,943 535,972C536,934 544,893 558,848C582,769 594,716 594,687C594,660 586,638 570,620C554,601 537,592 519,592C494,592 472,602 452,621C438,635 431,657 431,688C431,720 439,759 454,804C469,849 479,880 483,897C487,914 491,939 494,972C455,946 420,917 391,885C342,830 306,796 281,781C264,770 246,765 227,765C204,765 185,773 169,788C153,803 145,820 145,839C145,856 152,873 166,892C179,910 200,925 227,937C245,945 286,956 350,969C391,978 432,990 471,1007C435,1025 392,1039 342,1049C260,1066 209,1082 190,1096C160,1118 145,1145 145,1176C145,1194 153,1211 168,1226C183,1241 200,1248 220,1248C242,1248 265,1241 290,1227C315,1213 345,1185 382,1143C419,1100 456,1067 494,1044z" unicode="*"></glyph><glyph d="M535,141l0,499l-498,0l0,82l498,0l0,497l80,0l0,-497l500,0l0,-82l-500,0l0,-499z" unicode="+"></glyph><glyph d="M110,-341l0,44C179,-274 232,-239 270,-191C307,-144 326,-93 326,-40C326,-27 323,-17 317,-8C312,-2 308,1 303,1C296,1 280,-6 255,-19C243,-25 230,-28 217,-28C184,-28 158,-18 139,1C120,20 110,47 110,81C110,114 123,142 148,165C173,188 203,200 239,200C283,200 322,181 357,143C391,104 408,53 408,-10C408,-79 384,-142 337,-201C289,-260 213,-307 110,-341z" unicode=","></glyph><glyph d="M83,535l517,0l0,-151l-517,0z" unicode="-"></glyph><glyph d="M256,194C287,194 314,183 335,162C356,140 367,114 367,83C367,52 356,26 335,5C313,-17 287,-28 256,-28C225,-28 199,-17 178,5C156,26 145,52 145,83C145,114 156,141 178,162C199,183 225,194 256,194z" unicode="."></glyph><glyph d="M574,1422l-491,-1450l-80,0l491,1450z" unicode="/"></glyph><glyph d="M74,670C74,825 97,958 144,1070C191,1181 253,1264 330,1319C390,1362 452,1384 516,1384C620,1384 713,1331 796,1225C899,1094 951,916 951,691C951,534 928,400 883,290C838,180 780,100 710,51C639,1 571,-24 506,-24C377,-24 269,52 183,205C110,334 74,489 74,670M270,645C270,458 293,306 339,188C377,89 434,39 509,39C545,39 582,55 621,88C660,120 689,174 709,250C740,365 755,526 755,735C755,890 739,1019 707,1122C683,1199 652,1253 614,1285C587,1307 554,1318 515,1318C470,1318 429,1298 394,1257C346,1202 313,1115 296,996C279,877 270,760 270,645z" unicode="0"></glyph><glyph d="M240,1223l330,161l33,0l0,-1145C603,163 606,116 613,97C619,78 632,64 652,54C672,44 713,38 774,37l0,-37l-510,0l0,37C328,38 369,44 388,54C407,63 420,76 427,93C434,109 438,158 438,239l0,732C438,1070 435,1133 428,1161C423,1182 415,1198 403,1208C390,1218 375,1223 358,1223C333,1223 299,1213 255,1192z" unicode="1"></glyph><glyph d="M939,261l-95,-261l-800,0l0,37C279,252 445,427 541,563C637,699 685,823 685,936C685,1022 659,1093 606,1148C553,1203 490,1231 417,1231C350,1231 291,1212 238,1173C185,1134 145,1076 120,1001l-37,0C100,1124 143,1219 212,1285C281,1351 367,1384 470,1384C580,1384 672,1349 746,1278C819,1207 856,1124 856,1028C856,959 840,891 808,822C759,714 679,600 568,479C402,298 298,188 257,151l354,0C683,151 734,154 763,159C792,164 818,175 841,192C864,208 885,231 902,261z" unicode="2"></glyph><glyph d="M104,1098C143,1189 192,1260 251,1310C310,1359 383,1384 471,1384C580,1384 663,1349 721,1278C765,1225 787,1169 787,1109C787,1010 725,908 601,803C684,770 747,724 790,663C833,602 854,531 854,449C854,332 817,230 742,144C645,32 504,-24 319,-24C228,-24 166,-13 133,10C100,33 83,57 83,83C83,102 91,119 107,134C122,149 141,156 163,156C180,156 197,153 214,148C225,145 251,133 291,112C331,91 359,78 374,74C399,67 425,63 453,63C521,63 580,89 631,142C681,195 706,257 706,329C706,382 694,433 671,483C654,520 635,549 614,568C585,595 546,619 496,641C446,662 395,673 343,673l-32,0l0,30C364,710 417,729 470,760C523,791 561,829 585,873C609,917 621,965 621,1018C621,1087 600,1142 557,1185C514,1227 460,1248 396,1248C293,1248 206,1193 137,1082z" unicode="3"></glyph><glyph d="M953,500l0,-142l-182,0l0,-358l-165,0l0,358l-574,0l0,128l629,898l110,0l0,-884M606,500l0,673l-476,-673z" unicode="4"></glyph><glyph d="M889,1356l-78,-170l-408,0l-89,-182C491,978 631,912 734,807C823,716 867,610 867,487C867,416 853,350 824,289C795,228 758,177 714,134C670,91 621,57 567,31C490,-6 412,-24 331,-24C250,-24 191,-10 154,18C117,45 98,76 98,109C98,128 106,144 121,159C136,173 156,180 179,180C196,180 212,177 225,172C238,167 260,153 291,131C341,96 392,79 443,79C521,79 590,109 649,168C708,227 737,298 737,383C737,465 711,542 658,613C605,684 533,738 440,777C367,807 268,824 143,829l260,527z" unicode="5"></glyph><glyph d="M918,1384l0,-37C830,1338 758,1321 703,1295C647,1268 592,1228 538,1174C483,1120 438,1060 403,994C367,927 337,848 313,757C409,823 505,856 602,856C695,856 775,819 843,744C911,669 945,573 945,456C945,343 911,239 842,146C759,33 650,-24 514,-24C421,-24 343,7 278,68C151,187 88,342 88,532C88,653 112,769 161,878C210,987 279,1084 370,1169C460,1254 546,1311 629,1340C712,1369 789,1384 860,1384M296,684C284,594 278,521 278,466C278,402 290,333 314,258C337,183 372,123 419,79C453,48 494,32 543,32C601,32 653,59 699,114C744,169 767,247 767,348C767,462 744,561 699,644C654,727 589,769 506,769C481,769 454,764 425,753C396,742 353,719 296,684z" unicode="6"></glyph><glyph d="M206,1356l727,0l0,-38l-452,-1346l-112,0l405,1221l-373,0C326,1193 272,1184 240,1166C184,1135 139,1088 105,1024l-29,11z" unicode="7"></glyph><glyph d="M393,683C286,771 217,842 186,895C155,948 139,1004 139,1061C139,1149 173,1225 241,1289C309,1352 399,1384 512,1384C621,1384 709,1354 776,1295C843,1236 876,1168 876,1092C876,1041 858,990 822,937C786,884 711,822 597,751C714,660 792,589 830,537C881,469 906,397 906,322C906,227 870,145 797,78C724,10 629,-24 511,-24C382,-24 282,16 210,97C153,162 124,232 124,309C124,369 144,429 185,488C225,547 294,612 393,683M550,790C630,862 681,919 702,961C723,1002 734,1049 734,1102C734,1172 714,1227 675,1267C636,1306 582,1326 514,1326C446,1326 391,1306 348,1267C305,1228 284,1182 284,1129C284,1094 293,1060 311,1025C328,990 353,957 386,926M440,645C385,598 344,548 317,493C290,438 277,378 277,314C277,228 301,159 348,108C395,56 454,30 527,30C599,30 657,50 700,91C743,132 765,181 765,239C765,287 752,330 727,368C680,439 584,531 440,645z" unicode="8"></glyph><glyph d="M108,-28l0,37C195,10 275,31 350,70C425,109 497,177 567,274C636,371 685,478 712,595C607,528 513,494 428,494C333,494 251,531 183,605C115,678 81,776 81,898C81,1017 115,1122 183,1215C265,1328 372,1384 504,1384C615,1384 711,1338 790,1246C887,1132 936,991 936,824C936,673 899,533 825,403C751,272 648,164 516,78C409,7 292,-28 165,-28M728,669C740,756 746,825 746,877C746,942 735,1012 713,1087C691,1162 660,1219 620,1259C579,1299 533,1319 482,1319C423,1319 371,1292 326,1239C281,1186 259,1106 259,1001C259,860 289,750 348,671C391,614 445,585 508,585C539,585 575,592 617,607C659,622 696,642 728,669z" unicode="9"></glyph><glyph d="M289,944C320,944 346,933 368,912C389,890 400,864 400,833C400,802 389,776 368,755C346,733 320,722 289,722C258,722 232,733 211,755C189,776 178,802 178,833C178,864 189,890 211,912C232,933 258,944 289,944M287,195C318,195 345,184 367,162C388,140 399,114 399,83C399,52 388,26 366,5C344,-17 318,-28 287,-28C256,-28 230,-17 209,5C187,26 176,52 176,83C176,114 187,140 209,162C230,184 256,195 287,195z" unicode=":"></glyph><glyph d="M282,945C313,945 339,934 361,913C382,892 393,866 393,835C393,804 382,778 361,757C339,735 313,724 282,724C251,724 225,735 204,757C182,778 171,804 171,835C171,866 182,892 204,913C225,934 251,945 282,945M142,-341l0,44C211,-274 264,-239 302,-191C339,-144 358,-93 358,-40C358,-27 355,-17 349,-8C344,-2 340,1 335,1C328,1 312,-6 287,-19C275,-25 262,-28 249,-28C216,-28 190,-18 171,1C152,20 142,47 142,81C142,114 155,142 180,165C205,188 235,200 271,200C315,200 354,181 389,143C423,104 440,53 440,-10C440,-79 416,-142 369,-201C321,-260 245,-307 142,-341z" unicode=";"></glyph><glyph d="M37,706l1076,466l0,-87l-926,-402l926,-406l0,-90l-1076,470z" unicode="&lt;"></glyph><glyph d="M37,883l1079,0l0,-82l-1079,0M37,557l1079,0l0,-82l-1079,0z" unicode="="></glyph><glyph d="M1113,653l-1076,-466l0,86l927,402l-927,406l0,91l1076,-470z" unicode="&gt;"></glyph><glyph d="M454,320l-41,0C418,404 428,474 445,529C461,584 495,660 546,758C586,833 612,891 624,932C636,972 642,1013 642,1054C642,1139 620,1206 575,1256C530,1306 474,1331 409,1331C351,1331 305,1317 272,1290C239,1263 222,1233 222,1201C222,1176 232,1146 252,1110C272,1074 282,1047 282,1028C282,1004 274,984 259,968C244,951 225,943 203,943C175,943 150,957 127,985C104,1012 92,1051 92,1100C92,1175 124,1242 189,1300C254,1358 341,1387 452,1387C589,1387 690,1347 755,1267C803,1208 827,1143 827,1072C827,1023 816,973 795,922C773,871 732,810 671,741C574,632 515,554 494,509C472,463 459,400 454,320M440,196C471,196 498,185 520,164C541,142 552,115 552,84C552,53 541,27 519,6C497,-16 471,-27 440,-27C409,-27 383,-16 362,6C340,27 329,53 329,84C329,115 340,142 362,164C383,185 409,196 440,196z" unicode="?"></glyph><glyph d="M1408,958l-117,-399C1248,410 1221,315 1212,275C1203,235 1198,203 1198,179C1198,158 1205,140 1220,125C1234,110 1252,103 1273,103C1322,103 1380,127 1449,176C1517,225 1575,304 1624,413C1673,522 1697,636 1697,755C1697,869 1670,974 1615,1071C1560,1168 1482,1242 1382,1294C1281,1345 1170,1371 1049,1371C895,1371 752,1330 620,1249C488,1167 384,1049 307,896C230,743 191,583 191,418C191,265 225,125 293,0C360,-125 455,-220 578,-284C701,-349 833,-381 974,-381C1149,-381 1308,-334 1450,-240C1591,-146 1701,-9 1778,172l58,0C1776,-11 1667,-159 1509,-272C1351,-385 1171,-442 969,-442C810,-442 663,-404 527,-329C391,-254 285,-148 210,-10C135,127 97,279 97,444C97,620 138,784 221,937C304,1089 420,1208 569,1294C718,1379 876,1422 1043,1422C1181,1422 1306,1394 1417,1337C1528,1280 1612,1196 1670,1087C1728,977 1757,860 1757,737C1757,615 1730,494 1676,375C1621,255 1552,168 1468,113C1384,58 1296,31 1205,31C1154,31 1116,43 1091,67C1065,91 1052,125 1052,168C1052,205 1058,254 1070,315C971,196 892,118 833,83C774,48 721,30 676,30C629,30 587,51 550,94C513,136 495,192 495,263C495,360 527,468 590,588C653,708 736,806 840,881C917,936 985,964 1046,964C1091,964 1128,953 1158,930C1187,907 1207,872 1218,826l33,110M1057,917C1007,917 956,891 905,838C830,761 765,656 712,525C673,429 653,352 653,293C653,251 665,217 689,191C712,164 739,151 768,151C807,151 847,166 890,195C933,224 977,270 1024,331C1071,392 1105,453 1126,514C1163,620 1182,706 1182,773C1182,817 1170,852 1146,878C1121,904 1092,917 1057,917z" unicode="@"></glyph><glyph d="M937,454l-525,0l-92,-214C297,187 286,148 286,122C286,101 296,83 316,68C335,52 378,42 443,37l0,-37l-427,0l0,37C73,47 109,60 126,76C160,108 198,173 239,271l477,1116l35,0l472,-1128C1261,168 1296,110 1327,83C1358,56 1401,40 1456,37l0,-37l-535,0l0,37C975,40 1012,49 1031,64C1050,79 1059,98 1059,120C1059,149 1046,196 1019,259M909,528l-230,548l-236,-548z" unicode="A"></glyph><glyph d="M946,692C1040,672 1110,640 1157,596C1222,535 1254,460 1254,371C1254,304 1233,239 1190,178C1147,116 1089,71 1015,43C940,14 827,0 674,0l-640,0l0,37l51,0C142,37 182,55 207,91C222,114 230,164 230,240l0,876C230,1200 220,1253 201,1275C175,1304 136,1319 85,1319l-51,0l0,37l586,0C729,1356 817,1348 883,1332C983,1308 1059,1266 1112,1205C1165,1144 1191,1073 1191,994C1191,926 1170,865 1129,812C1088,758 1027,718 946,692M422,746C447,741 475,738 507,736C538,733 573,732 611,732C708,732 782,743 831,764C880,785 917,817 943,860C969,903 982,951 982,1002C982,1081 950,1149 885,1205C820,1261 726,1289 602,1289C535,1289 475,1282 422,1267M422,98C499,80 576,71 651,71C772,71 864,98 927,153C990,207 1022,274 1022,354C1022,407 1008,457 979,506C950,555 904,593 839,621C774,649 694,663 599,663C558,663 522,662 493,661C464,660 440,657 422,654z" unicode="B"></glyph><glyph d="M1233,1387l31,-461l-31,0C1192,1064 1133,1163 1056,1224C979,1285 887,1315 780,1315C690,1315 609,1292 536,1247C463,1201 406,1128 365,1028C323,928 302,804 302,655C302,532 322,426 361,336C400,246 460,177 539,129C618,81 708,57 809,57C897,57 975,76 1042,114C1109,151 1183,226 1264,338l31,-20C1227,197 1148,109 1057,53C966,-3 859,-31 734,-31C509,-31 335,52 212,219C120,343 74,489 74,657C74,792 104,917 165,1030C226,1143 309,1231 416,1294C522,1356 638,1387 764,1387C862,1387 959,1363 1054,1315C1082,1300 1102,1293 1114,1293C1132,1293 1148,1299 1161,1312C1178,1330 1191,1355 1198,1387z" unicode="C"></glyph><glyph d="M35,0l0,37l51,0C143,37 184,55 208,92C223,114 230,163 230,240l0,876C230,1201 221,1254 202,1275C176,1304 137,1319 86,1319l-51,0l0,37l552,0C790,1356 944,1333 1050,1287C1155,1241 1240,1164 1305,1057C1369,950 1401,826 1401,685C1401,496 1344,339 1229,212C1100,71 904,0 641,0M422,98C507,79 578,70 635,70C790,70 918,124 1020,233C1122,342 1173,489 1173,675C1173,862 1122,1010 1020,1118C918,1226 787,1280 627,1280C567,1280 499,1270 422,1251z" unicode="D"></glyph><glyph d="M428,1282l0,-536l298,0C803,746 855,758 881,781C916,812 935,866 939,943l37,0l0,-472l-37,0C930,537 920,579 911,598C899,621 879,640 852,653C825,666 783,673 726,673l-298,0l0,-447C428,166 431,130 436,117C441,104 451,93 464,86C477,78 503,74 540,74l230,0C847,74 902,79 937,90C972,101 1005,122 1037,153C1078,194 1121,257 1164,340l40,0l-117,-340l-1045,0l0,37l48,0C122,37 152,45 181,60C202,71 217,87 225,108C232,129 236,173 236,239l0,881C236,1206 227,1259 210,1279C186,1306 146,1319 90,1319l-48,0l0,37l1045,0l15,-297l-39,0C1049,1130 1034,1179 1017,1206C1000,1233 974,1253 941,1267C914,1277 867,1282 800,1282z" unicode="E"></glyph><glyph d="M419,1282l0,-533l247,0C723,749 764,762 791,787C817,812 834,861 843,935l37,0l0,-459l-37,0C842,529 836,567 823,592C810,617 792,635 769,648C746,660 711,666 666,666l-247,0l0,-426C419,171 423,126 432,104C439,87 453,73 474,61C503,45 534,37 566,37l49,0l0,-37l-582,0l0,37l48,0C137,37 178,53 203,86C219,107 227,159 227,240l0,876C227,1185 223,1230 214,1252C207,1269 194,1283 173,1295C144,1311 114,1319 81,1319l-48,0l0,37l1009,0l13,-298l-35,0C1003,1121 983,1168 960,1198C937,1227 908,1249 875,1262C841,1275 789,1282 718,1282z" unicode="F"></glyph><glyph d="M1257,1387l35,-428l-35,0C1222,1066 1176,1146 1120,1200C1039,1278 936,1317 809,1317C636,1317 505,1249 415,1112C340,997 302,859 302,700C302,571 327,453 377,346C427,239 493,161 574,112C655,62 738,37 823,37C873,37 921,43 968,56C1015,69 1060,87 1103,112l0,392C1103,572 1098,617 1088,638C1077,659 1061,675 1040,686C1018,697 980,702 925,702l0,38l525,0l0,-38l-25,0C1373,702 1337,685 1318,650C1305,625 1298,577 1298,504l0,-415C1221,48 1146,17 1071,-2C996,-21 913,-31 822,-31C560,-31 361,53 225,221C123,347 72,492 72,657C72,776 101,891 158,1000C226,1130 319,1230 438,1300C537,1358 655,1387 790,1387C839,1387 884,1383 925,1375C965,1367 1022,1349 1096,1322C1133,1308 1158,1301 1171,1301C1184,1301 1195,1307 1204,1319C1213,1330 1218,1353 1220,1387z" unicode="G"></glyph><glyph d="M421,727l630,0l0,388C1051,1184 1047,1230 1038,1252C1031,1269 1017,1283 996,1295C967,1311 937,1319 905,1319l-48,0l0,37l580,0l0,-37l-48,0C1357,1319 1327,1311 1298,1296C1277,1285 1262,1269 1255,1248C1247,1226 1243,1182 1243,1115l0,-875C1243,171 1247,126 1256,104C1263,87 1276,73 1297,61C1326,45 1357,37 1389,37l48,0l0,-37l-580,0l0,37l48,0C960,37 1001,53 1026,86C1043,107 1051,159 1051,240l0,413l-630,0l0,-413C421,171 425,126 434,104C441,87 455,73 476,61C505,45 535,37 567,37l49,0l0,-37l-581,0l0,37l48,0C139,37 180,53 205,86C221,107 229,159 229,240l0,875C229,1184 225,1230 216,1252C209,1269 196,1283 175,1295C146,1311 115,1319 83,1319l-48,0l0,37l581,0l0,-37l-49,0C535,1319 505,1311 476,1296C455,1285 441,1269 433,1248C425,1226 421,1182 421,1115z" unicode="H"></glyph><glyph d="M632,37l0,-37l-581,0l0,37l48,0C155,37 196,53 221,86C237,107 245,159 245,240l0,876C245,1185 241,1230 232,1252C225,1269 212,1283 191,1295C162,1311 131,1319 99,1319l-48,0l0,37l581,0l0,-37l-49,0C528,1319 487,1303 462,1270C445,1249 437,1197 437,1116l0,-876C437,171 441,126 450,104C457,87 471,73 492,61C521,45 551,37 583,37z" unicode="I"></glyph><glyph d="M204,1319l0,37l581,0l0,-37l-49,0C681,1319 640,1303 615,1270C599,1249 591,1197 591,1116l0,-663C591,351 580,268 558,205C535,142 497,87 442,40C387,-7 321,-31 244,-31C181,-31 132,-15 96,16C60,47 42,82 42,122C42,155 50,179 67,196C89,217 115,227 144,227C165,227 185,220 202,206C219,192 240,155 266,94C281,58 301,40 325,40C343,40 360,51 376,73C391,95 399,134 399,190l0,926C399,1185 395,1230 386,1252C379,1269 365,1283 344,1295C315,1311 285,1319 253,1319z" unicode="J"></glyph><glyph d="M612,752l500,-497C1194,173 1264,117 1322,88C1380,58 1438,41 1496,37l0,-37l-645,0l0,37C890,37 918,44 935,57C952,70 960,84 960,100C960,116 957,130 951,143C944,156 923,179 888,214l-468,463l0,-437C420,171 424,126 433,104C440,87 454,73 475,61C504,45 534,37 566,37l46,0l0,-37l-578,0l0,37l48,0C138,37 179,53 204,86C220,107 228,159 228,240l0,876C228,1185 224,1230 215,1253C208,1269 195,1283 174,1295C145,1311 114,1319 82,1319l-48,0l0,37l578,0l0,-37l-46,0C535,1319 504,1311 475,1296C454,1285 440,1269 432,1248C424,1227 420,1183 420,1116l0,-415C433,714 479,756 557,828C755,1009 875,1130 916,1191C934,1218 943,1241 943,1261C943,1276 936,1290 922,1302C908,1313 884,1319 851,1319l-31,0l0,37l498,0l0,-37C1289,1318 1262,1314 1238,1307C1214,1300 1185,1286 1150,1265C1115,1244 1073,1210 1022,1163C1007,1150 940,1081 819,958z" unicode="K"></glyph><glyph d="M1174,375l33,-7l-116,-368l-1050,0l0,37l51,0C149,37 190,56 215,93C229,114 236,164 236,241l0,875C236,1201 227,1254 208,1275C182,1304 143,1319 92,1319l-51,0l0,37l614,0l0,-37C583,1320 533,1313 504,1299C475,1285 455,1267 444,1246C433,1225 428,1174 428,1093l0,-852C428,186 433,148 444,127C452,113 464,103 481,96C498,89 550,86 637,86l99,0C840,86 913,94 955,109C997,124 1035,152 1070,191C1105,230 1139,291 1174,375z" unicode="L"></glyph><glyph d="M838,0l-524,1141l0,-906C314,152 323,100 341,79C366,51 405,37 458,37l48,0l0,-37l-472,0l0,37l48,0C139,37 180,54 204,89C219,110 226,159 226,235l0,886C226,1181 219,1224 206,1251C197,1270 180,1287 155,1300C130,1313 89,1319 34,1319l0,37l384,0l492,-1061l484,1061l384,0l0,-37l-47,0C1673,1319 1632,1302 1608,1267C1593,1246 1586,1197 1586,1121l0,-886C1586,152 1595,100 1614,79C1639,51 1678,37 1731,37l47,0l0,-37l-576,0l0,37l48,0C1308,37 1349,54 1372,89C1387,110 1394,159 1394,235l0,906l-523,-1141z" unicode="M"></glyph><glyph d="M-27,1356l368,0l829,-1017l0,782C1170,1204 1161,1256 1142,1277C1117,1305 1078,1319 1025,1319l-47,0l0,37l472,0l0,-37l-48,0C1345,1319 1304,1302 1280,1267C1265,1246 1258,1197 1258,1121l0,-1143l-36,0l-894,1092l0,-835C328,152 337,100 355,79C380,51 419,37 472,37l48,0l0,-37l-472,0l0,37l47,0C153,37 194,54 218,89C233,110 240,159 240,235l0,943C201,1224 171,1254 151,1269C130,1284 100,1297 61,1310C42,1316 12,1319 -27,1319z" unicode="N"></glyph><glyph d="M749,1387C925,1387 1078,1320 1207,1187C1336,1053 1400,886 1400,686C1400,480 1335,309 1205,173C1075,37 918,-31 733,-31C546,-31 390,35 263,168C136,301 72,472 72,683C72,898 145,1074 292,1210C419,1328 572,1387 749,1387M730,1314C609,1314 511,1269 438,1179C347,1067 301,903 301,687C301,466 348,295 443,176C516,85 612,40 731,40C858,40 964,90 1047,189C1130,288 1171,445 1171,659C1171,891 1125,1064 1034,1178C961,1269 859,1314 730,1314z" unicode="O"></glyph><glyph d="M420,635l0,-395C420,155 429,102 448,81C473,52 512,37 563,37l52,0l0,-37l-581,0l0,37l51,0C142,37 183,56 208,93C221,114 228,163 228,240l0,876C228,1201 219,1254 201,1275C175,1304 136,1319 85,1319l-51,0l0,37l497,0C652,1356 748,1344 818,1319C888,1294 947,1251 995,1192C1043,1133 1067,1062 1067,981C1067,870 1031,780 958,711C885,642 781,607 648,607C615,607 580,609 542,614C504,619 463,626 420,635M420,692C455,685 487,680 514,677C541,674 565,672 584,672C653,672 713,699 764,753C814,806 839,876 839,961C839,1020 827,1074 803,1125C779,1175 745,1213 701,1238C657,1263 607,1275 551,1275C517,1275 473,1269 420,1256z" unicode="P"></glyph><glyph d="M902,-15C970,-132 1044,-219 1123,-274C1202,-329 1291,-361 1392,-369l0,-32C1300,-398 1202,-379 1097,-345C992,-312 893,-265 800,-205C706,-146 625,-82 557,-15C461,24 385,65 329,108C248,173 185,252 140,347C95,441 72,552 72,681C72,884 138,1052 269,1186C400,1320 559,1387 746,1387C923,1387 1077,1320 1207,1186C1336,1051 1401,882 1401,677C1401,511 1355,365 1263,240C1170,115 1050,30 902,-15M734,1310C613,1310 515,1267 441,1180C348,1071 301,905 301,681C301,462 348,293 443,174C516,83 613,37 734,37C859,37 960,83 1037,174C1127,282 1172,441 1172,652C1172,814 1147,950 1098,1061C1060,1146 1010,1209 947,1250C884,1290 813,1310 734,1310z" unicode="Q"></glyph><glyph d="M1384,0l-362,0l-459,634C529,633 501,632 480,632C471,632 462,632 452,633C442,633 432,633 421,634l0,-394C421,155 430,102 449,81C474,52 512,37 563,37l53,0l0,-37l-581,0l0,37l51,0C143,37 184,56 209,93C223,114 230,163 230,240l0,876C230,1201 221,1254 202,1275C176,1304 137,1319 86,1319l-51,0l0,37l494,0C673,1356 779,1346 848,1325C916,1304 974,1265 1022,1209C1069,1152 1093,1085 1093,1007C1093,924 1066,851 1012,790C957,729 873,685 759,660l280,-389C1103,182 1158,122 1204,93C1250,64 1310,45 1384,37M421,697C434,697 445,697 454,697C463,696 471,696 477,696C606,696 704,724 770,780C835,836 868,907 868,994C868,1079 842,1148 789,1201C736,1254 665,1280 578,1280C539,1280 487,1274 421,1261z" unicode="R"></glyph><glyph d="M939,1387l0,-469l-37,0C890,1008 869,1080 838,1133C807,1186 762,1229 705,1260C648,1291 588,1307 527,1307C458,1307 400,1286 355,1244C310,1201 287,1153 287,1099C287,1058 301,1020 330,986C371,936 470,869 625,786C752,718 838,666 885,630C931,593 967,550 992,501C1017,452 1029,400 1029,346C1029,243 989,155 910,81C830,6 727,-31 602,-31C563,-31 526,-28 491,-22C470,-19 428,-6 363,15C298,36 256,46 239,46C222,46 209,41 200,31C190,21 183,0 178,-31l-37,0l0,465l37,0C195,337 219,264 248,216C277,167 322,127 383,95C443,63 509,47 581,47C664,47 730,69 779,113C827,157 851,209 851,269C851,302 842,336 824,370C805,404 777,436 738,465C712,485 641,528 525,593C409,658 327,709 278,748C229,787 191,829 166,876C141,923 128,974 128,1030C128,1127 165,1211 240,1282C315,1352 410,1387 525,1387C597,1387 673,1369 754,1334C791,1317 818,1309 833,1309C850,1309 865,1314 876,1325C887,1335 895,1356 902,1387z" unicode="S"></glyph><glyph d="M1185,1356l15,-318l-38,0C1155,1094 1145,1134 1132,1158C1111,1197 1084,1225 1050,1244C1015,1262 970,1271 914,1271l-191,0l0,-1036C723,152 732,100 750,79C775,51 814,37 867,37l47,0l0,-37l-575,0l0,37l48,0C444,37 485,54 509,89C524,110 531,159 531,235l0,1036l-163,0C305,1271 260,1266 233,1257C198,1244 169,1220 144,1184C119,1148 105,1099 100,1038l-38,0l16,318z" unicode="T"></glyph><glyph d="M977,1319l0,37l480,0l0,-37l-51,0C1353,1319 1312,1297 1283,1252C1269,1231 1262,1183 1262,1108l0,-550C1262,422 1249,317 1222,242C1195,167 1142,102 1063,49C984,-5 876,-32 740,-32C592,-32 480,-6 403,45C326,96 272,165 240,252C219,311 208,423 208,586l0,530C208,1199 197,1254 174,1280C151,1306 113,1319 62,1319l-51,0l0,37l586,0l0,-37l-52,0C489,1319 449,1301 425,1266C408,1242 400,1192 400,1116l0,-591C400,472 405,412 415,344C424,276 442,223 467,185C492,147 529,116 577,91C624,66 683,54 752,54C841,54 920,73 990,112C1060,151 1108,200 1134,261C1159,321 1172,423 1172,567l0,549C1172,1201 1163,1254 1144,1275C1118,1304 1079,1319 1028,1319z" unicode="U"></glyph><glyph d="M1454,1356l0,-37C1406,1310 1370,1295 1345,1273C1310,1240 1278,1190 1251,1123l-473,-1154l-37,0l-508,1169C207,1198 189,1235 178,1248C161,1269 141,1285 117,1297C92,1308 59,1316 18,1319l0,37l554,0l0,-37C509,1313 469,1302 450,1287C431,1272 422,1252 422,1228C422,1195 437,1143 468,1072l345,-795l320,785C1164,1139 1180,1193 1180,1223C1180,1242 1170,1261 1151,1279C1132,1296 1099,1309 1053,1316C1050,1317 1044,1318 1036,1319l0,37z" unicode="V"></glyph><glyph d="M1917,1356l0,-37C1882,1319 1853,1313 1831,1300C1809,1287 1788,1264 1768,1229C1755,1206 1734,1150 1705,1062l-378,-1093l-40,0l-309,867l-307,-867l-36,0l-403,1126C202,1179 183,1229 175,1244C162,1269 144,1288 121,1301C98,1313 66,1319 27,1319l0,37l502,0l0,-37l-24,0C470,1319 443,1311 424,1295C405,1279 396,1260 396,1237C396,1214 411,1160 440,1076l267,-761l225,647l-40,114l-32,91C846,1200 830,1230 813,1255C804,1268 794,1278 781,1287C764,1299 748,1308 731,1313C718,1317 698,1319 671,1319l0,37l528,0l0,-37l-36,0C1126,1319 1098,1311 1081,1295C1064,1279 1055,1257 1055,1230C1055,1196 1070,1137 1100,1052l260,-737l258,747C1647,1145 1662,1202 1662,1234C1662,1249 1657,1264 1648,1277C1638,1290 1626,1300 1611,1305C1586,1314 1553,1319 1512,1319l0,37z" unicode="W"></glyph><glyph d="M836,751l291,-434C1208,197 1268,121 1307,90C1346,58 1395,40 1455,37l0,-37l-582,0l0,37C912,38 940,42 959,49C973,55 985,64 994,77C1003,89 1007,101 1007,114C1007,129 1004,145 998,160C993,171 975,201 943,248l-230,348l-284,-364C399,193 381,168 375,155C369,142 366,128 366,114C366,93 375,75 393,61C411,47 445,39 496,37l0,-37l-481,0l0,37C49,40 78,47 103,58C144,75 184,99 221,128C258,157 301,202 349,263l320,404l-267,391C329,1164 268,1234 217,1267C166,1300 108,1317 42,1319l0,37l627,0l0,-37C616,1317 579,1308 560,1293C540,1278 530,1261 530,1242C530,1217 546,1181 578,1134l208,-311l241,305C1055,1164 1072,1189 1079,1202C1085,1215 1088,1229 1088,1243C1088,1257 1084,1269 1076,1280C1066,1294 1053,1304 1038,1310C1023,1315 991,1318 943,1319l0,37l481,0l0,-37C1386,1317 1355,1311 1331,1301C1295,1286 1262,1265 1232,1239C1202,1213 1160,1165 1105,1095z" unicode="X"></glyph><glyph d="M976,1356l473,0l0,-37l-26,0C1406,1319 1380,1311 1347,1296C1314,1281 1283,1259 1256,1230C1229,1201 1195,1155 1155,1090l-327,-515l0,-340C828,152 837,100 856,79C881,51 921,37 976,37l44,0l0,-37l-576,0l0,37l48,0C549,37 590,54 614,89C629,110 636,159 636,235l0,321l-372,568C220,1191 190,1232 175,1249C159,1266 126,1286 77,1309C64,1316 44,1319 19,1319l0,37l580,0l0,-37l-30,0C538,1319 509,1312 483,1297C456,1282 443,1260 443,1231C443,1207 463,1164 504,1101l283,-437l266,418C1093,1145 1113,1191 1113,1222C1113,1241 1108,1257 1099,1272C1089,1287 1075,1298 1057,1307C1039,1315 1012,1319 976,1319z" unicode="Y"></glyph><glyph d="M1178,1356l-891,-1274l556,0C928,82 994,101 1040,138C1085,175 1126,251 1161,365l33,-6l-64,-359l-1104,0l0,37l870,1238l-434,0C390,1275 338,1267 306,1252C273,1236 249,1213 232,1184C215,1154 199,1098 185,1017l-38,0l28,339z" unicode="Z"></glyph><glyph d="M608,-406l-440,0l0,1793l440,0l0,-79l-290,0l0,-1636l290,0z" unicode="["></glyph><glyph d="M83,1422l490,-1450l-80,0l-490,1450z" unicode="\"></glyph><glyph d="M75,1387l440,0l0,-1794l-440,0l0,79l290,0l0,1636l-290,0z" unicode="]"></glyph><glyph d="M498,1384l425,-717l-92,0l-350,586l-350,-586l-94,0l431,717z" unicode="^"></glyph><glyph d="M1042,-442l-1059,0l0,84l1059,0z" unicode="_"></glyph><glyph d="M118,1390l223,0l106,-345l-35,0z" unicode="`"></glyph><glyph d="M583,132C489,59 430,17 406,6C370,-11 332,-19 291,-19C228,-19 176,3 135,46C94,89 73,146 73,217C73,262 83,300 103,333C130,378 178,421 246,461C313,501 426,550 583,607l0,36C583,734 569,797 540,831C511,865 468,882 413,882C371,882 338,871 313,848C288,825 275,799 275,770l2,-58C277,681 269,658 254,641C238,624 217,616 192,616C167,616 147,625 132,642C116,659 108,683 108,713C108,770 137,823 196,871C255,919 337,943 443,943C524,943 591,929 643,902C682,881 711,849 730,805C742,776 748,718 748,629l0,-311C748,231 750,177 753,158C756,138 762,125 770,118C777,111 786,108 796,108C807,108 816,110 824,115C838,124 865,148 905,188l0,-56C830,32 759,-18 691,-18C658,-18 632,-7 613,16C594,39 584,77 583,132M583,197l0,349C482,506 417,478 388,461C335,432 298,401 275,369C252,337 241,302 241,264C241,216 255,176 284,145C313,113 346,97 383,97C434,97 500,130 583,197z" unicode="a"></glyph><glyph d="M315,758C404,881 499,943 602,943C696,943 778,903 848,823C918,742 953,632 953,493C953,330 899,199 791,100C698,15 595,-28 481,-28C428,-28 374,-18 319,1C264,20 207,49 150,88l0,949C150,1141 148,1205 143,1229C138,1253 130,1269 119,1278C108,1287 95,1291 79,1291C60,1291 37,1286 9,1275l-14,35l275,112l45,0M315,694l0,-548C349,113 384,88 421,71C457,54 494,45 532,45C593,45 649,78 702,145C754,212 780,309 780,436C780,553 754,644 702,707C649,770 590,801 523,801C488,801 452,792 417,774C390,761 356,734 315,694z" unicode="b"></glyph><glyph d="M842,348C817,227 769,135 697,70C625,5 545,-28 458,-28C354,-28 263,16 186,103C109,190 70,308 70,457C70,601 113,718 199,808C284,898 387,943 507,943C597,943 671,919 729,872C787,824 816,774 816,723C816,698 808,677 792,662C775,646 752,638 723,638C684,638 654,651 634,676C623,690 615,717 612,756C608,795 594,825 571,846C548,866 515,876 474,876C407,876 354,851 313,802C259,737 232,650 232,543C232,434 259,337 313,254C366,170 439,128 530,128C595,128 654,150 706,195C743,226 778,281 813,362z" unicode="c"></glyph><glyph d="M711,103C666,56 623,23 580,3C537,-18 491,-28 442,-28C342,-28 255,14 180,98C105,181 68,289 68,420C68,551 109,672 192,781C275,890 381,944 511,944C592,944 658,918 711,867l0,169C711,1141 709,1205 704,1229C699,1253 691,1269 680,1278C669,1287 656,1291 640,1291C623,1291 600,1286 571,1275l-13,35l273,112l45,0l0,-1059C876,256 879,190 884,167C889,143 897,126 908,117C919,108 931,103 946,103C964,103 988,109 1018,120l11,-35l-272,-113l-46,0M711,173l0,472C707,690 695,732 675,769C655,806 629,835 596,854C563,873 530,882 499,882C440,882 388,856 342,803C281,734 251,632 251,499C251,364 280,261 339,190C398,118 463,82 535,82C596,82 654,112 711,173z" unicode="d"></glyph><glyph d="M218,571C217,435 250,328 317,251C384,174 462,135 552,135C612,135 664,152 709,185C753,218 790,274 820,354l31,-20C837,243 796,160 729,85C662,10 577,-28 476,-28C366,-28 272,15 194,101C115,186 76,301 76,446C76,603 116,725 197,813C277,900 378,944 499,944C602,944 686,910 752,843C818,775 851,684 851,571M218,629l424,0C639,688 632,729 621,753C604,790 580,820 547,841C514,862 479,873 443,873C388,873 338,852 295,809C251,766 225,706 218,629z" unicode="e"></glyph><glyph d="M422,844l0,-602C422,157 431,103 450,80C475,51 508,36 549,36l83,0l0,-36l-547,0l0,36l41,0C153,36 177,43 199,56C221,69 236,87 245,110C253,133 257,177 257,242l0,602l-178,0l0,72l178,0l0,60C257,1067 272,1145 301,1208C330,1271 375,1323 436,1362C496,1401 564,1420 639,1420C709,1420 773,1397 832,1352C871,1322 890,1288 890,1251C890,1231 881,1212 864,1195C847,1177 828,1168 808,1168C793,1168 777,1174 760,1185C743,1196 722,1219 697,1256C672,1292 650,1316 629,1329C608,1342 585,1348 560,1348C529,1348 503,1340 482,1324C461,1307 445,1282 436,1248C427,1213 422,1125 422,982l0,-66l236,0l0,-72z" unicode="f"></glyph><glyph d="M309,334C253,361 210,400 180,449C150,498 135,552 135,611C135,702 169,780 238,845C306,910 393,943 500,943C587,943 663,922 727,879l194,0C950,879 966,878 971,877C976,875 979,872 981,868C985,862 987,851 987,836C987,819 985,807 982,800C980,797 977,794 972,792C967,790 950,789 921,789l-119,0C839,741 858,680 858,605C858,520 825,447 760,386C695,325 607,295 497,295C452,295 405,302 358,315C329,290 309,268 299,249C288,230 283,213 283,200C283,189 289,178 300,167C311,156 332,149 364,144C383,141 429,139 504,137C641,134 730,129 771,123C833,114 883,91 920,54C957,17 975,-29 975,-84C975,-159 940,-230 869,-296C765,-393 629,-442 462,-442C333,-442 225,-413 136,-355C86,-322 61,-287 61,-251C61,-235 65,-219 72,-203C83,-178 107,-144 142,-100C147,-94 181,-58 244,8C209,29 185,47 171,64C156,80 149,98 149,119C149,142 159,170 178,201C197,232 240,277 309,334M483,895C434,895 392,875 359,836C326,797 309,736 309,655C309,550 332,468 377,410C412,366 456,344 509,344C560,344 601,363 634,401C667,439 683,499 683,580C683,686 660,769 614,829C580,873 536,895 483,895M299,0C268,-34 244,-66 228,-95C212,-124 204,-151 204,-176C204,-208 223,-236 262,-260C329,-301 425,-322 551,-322C671,-322 760,-301 817,-258C874,-216 902,-171 902,-123C902,-88 885,-64 851,-49C816,-34 748,-26 645,-23C495,-19 380,-11 299,0z" unicode="g"></glyph><glyph d="M333,1422l0,-670C407,833 466,886 509,909C552,932 596,943 639,943C691,943 736,929 773,900C810,871 838,826 856,765C869,722 875,644 875,531l0,-324C875,149 880,109 889,88C896,72 907,59 923,50C939,41 968,36 1011,36l0,-36l-450,0l0,36l21,0C625,36 654,43 671,56C688,69 699,88 706,113C708,124 709,155 709,207l0,324C709,631 704,697 694,728C683,759 667,783 644,799C621,814 594,822 562,822C529,822 495,813 460,796C425,779 382,744 333,691l0,-484C333,144 337,105 344,90C351,75 364,62 383,52C402,41 434,36 481,36l0,-36l-454,0l0,36C68,36 100,42 123,55C136,62 147,74 155,93C163,112 167,150 167,207l0,829C167,1141 165,1205 160,1229C155,1253 147,1269 137,1278C126,1287 112,1291 95,1291C81,1291 58,1286 27,1275l-14,35l274,112z" unicode="h"></glyph><glyph d="M297,1422C325,1422 349,1412 369,1393C388,1373 398,1349 398,1321C398,1293 388,1269 369,1249C349,1229 325,1219 297,1219C269,1219 245,1229 225,1249C205,1269 195,1293 195,1321C195,1349 205,1373 225,1393C244,1412 268,1422 297,1422M380,943l0,-736C380,150 384,112 393,93C401,74 413,59 430,50C446,41 476,36 519,36l0,-36l-445,0l0,36C119,36 149,40 164,49C179,58 192,72 201,92C210,112 214,150 214,207l0,353C214,659 211,724 205,753C200,774 193,789 183,798C173,806 159,810 142,810C123,810 101,805 74,795l-14,36l276,112z" unicode="i"></glyph><glyph d="M296,1423C325,1423 349,1413 369,1393C389,1373 399,1349 399,1320C399,1292 389,1268 369,1248C349,1228 325,1218 296,1218C268,1218 244,1228 224,1248C204,1268 194,1292 194,1320C194,1349 204,1373 224,1393C244,1413 268,1423 296,1423M382,943l0,-922C382,-136 349,-252 282,-328C215,-404 129,-442 22,-442C-39,-442 -84,-431 -113,-409C-142,-387 -157,-364 -157,-341C-157,-318 -149,-298 -132,-281C-116,-264 -97,-256 -75,-256C-58,-256 -40,-260 -22,-269C-11,-274 11,-290 44,-319C76,-348 103,-363 125,-363C141,-363 157,-357 172,-344C187,-332 199,-311 206,-282C213,-253 217,-191 217,-94l0,652C217,659 214,723 208,752C203,774 196,789 186,798C176,806 162,810 145,810C126,810 104,805 77,795l-14,36l276,112z" unicode="j"></glyph><glyph d="M335,1422l0,-911l233,212C617,768 646,797 654,809C659,817 662,825 662,833C662,846 657,858 646,868C635,877 616,883 591,884l0,32l398,0l0,-32C934,883 889,874 853,859C816,844 776,816 733,777l-235,-217l235,-297C798,181 842,129 865,107C897,76 925,55 949,46C966,39 995,36 1036,36l0,-36l-445,0l0,36C616,37 634,41 643,48C652,55 656,64 656,77C656,92 643,117 616,151l-281,359l0,-304C335,147 339,108 348,89C356,70 368,57 383,49C398,41 432,37 483,36l0,-36l-466,0l0,36C64,36 99,42 122,53C136,60 147,72 154,87C164,109 169,147 169,201l0,834C169,1141 167,1206 162,1230C157,1253 150,1270 139,1279C128,1288 114,1292 97,1292C83,1292 62,1286 34,1275l-17,35l272,112z" unicode="k"></glyph><glyph d="M379,1422l0,-1215C379,150 383,112 392,93C400,74 413,60 430,51C447,41 480,36 527,36l0,-36l-449,0l0,36C120,36 149,40 164,49C179,58 191,72 200,92C209,112 213,150 213,207l0,832C213,1142 211,1206 206,1230C201,1253 194,1269 184,1278C173,1287 160,1291 144,1291C127,1291 105,1286 78,1275l-17,35l273,112z" unicode="l"></glyph><glyph d="M336,748C403,815 442,853 454,863C484,888 516,908 551,922C586,936 620,943 654,943C711,943 761,926 802,893C843,860 871,811 885,748C954,828 1012,881 1059,906C1106,931 1155,943 1205,943C1254,943 1297,931 1335,906C1372,881 1402,840 1424,783C1439,744 1446,684 1446,601l0,-394C1446,150 1450,110 1459,89C1466,74 1478,62 1496,52C1514,41 1543,36 1584,36l0,-36l-452,0l0,36l19,0C1190,36 1221,44 1243,59C1258,70 1269,87 1276,110C1279,121 1280,154 1280,207l0,394C1280,676 1271,728 1253,759C1227,802 1185,823 1128,823C1093,823 1057,814 1022,797C986,779 943,746 892,698l-2,-11l2,-43l0,-437C892,144 896,105 903,90C910,75 923,62 942,52C961,41 994,36 1041,36l0,-36l-463,0l0,36C629,36 664,42 683,54C702,66 715,84 722,108C725,119 727,152 727,207l0,394C727,676 716,729 694,762C665,805 624,826 571,826C535,826 499,816 464,797C409,768 366,735 336,698l0,-491C336,147 340,108 349,90C357,72 369,59 386,50C402,41 435,36 485,36l0,-36l-453,0l0,36C74,36 103,41 120,50C137,59 149,73 158,93C167,112 171,150 171,207l0,350C171,658 168,723 162,752C157,774 150,789 140,798C130,806 116,810 99,810C80,810 58,805 32,795l-15,36l276,112l43,0z" unicode="m"></glyph><glyph d="M331,749C438,878 541,943 638,943C688,943 731,931 767,906C803,881 832,839 853,782C868,742 875,681 875,598l0,-391C875,149 880,110 889,89C896,72 908,59 925,50C941,41 971,36 1015,36l0,-36l-453,0l0,36l19,0C624,36 654,43 671,56C688,69 699,88 706,113C709,123 710,154 710,207l0,375C710,665 699,726 678,764C656,801 619,820 568,820C489,820 410,777 331,690l0,-483C331,145 335,107 342,92C351,73 364,59 381,50C397,41 430,36 480,36l0,-36l-453,0l0,36l20,0C94,36 125,48 142,72C158,95 166,140 166,207l0,340C166,657 164,724 159,748C154,772 146,788 136,797C125,806 111,810 94,810C75,810 53,805 27,795l-15,36l276,112l43,0z" unicode="n"></glyph><glyph d="M512,943C651,943 762,890 846,785C917,695 953,592 953,475C953,393 933,310 894,226C855,142 801,79 732,36C663,-7 586,-28 501,-28C363,-28 253,27 172,137C103,230 69,334 69,449C69,533 90,617 132,700C173,783 228,844 296,884C364,923 436,943 512,943M481,878C446,878 410,868 375,847C339,826 310,789 288,736C266,683 255,616 255,533C255,400 282,285 335,188C388,91 457,43 544,43C609,43 662,70 704,123C746,176 767,268 767,398C767,561 732,689 662,782C615,846 554,878 481,878z" unicode="o"></glyph><glyph d="M-2,825l282,114l38,0l0,-214C365,806 413,862 461,895C508,927 558,943 611,943C703,943 780,907 841,835C916,747 954,632 954,491C954,333 909,202 818,99C743,14 649,-28 536,-28C487,-28 444,-21 408,-7C381,3 351,23 318,53l0,-279C318,-289 322,-328 330,-345C337,-362 351,-376 370,-386C389,-396 423,-401 473,-401l0,-37l-480,0l0,37l25,0C55,-402 86,-395 112,-380C125,-373 135,-361 142,-344C149,-328 152,-287 152,-220l0,866C152,705 149,743 144,759C139,775 130,787 119,795C107,803 91,807 71,807C55,807 35,802 10,793M318,666l0,-342C318,250 321,201 327,178C336,139 359,105 396,76C432,47 478,32 533,32C600,32 654,58 695,110C749,178 776,274 776,397C776,537 745,645 684,720C641,772 591,798 532,798C500,798 468,790 437,774C413,762 373,726 318,666z" unicode="p"></glyph><glyph d="M875,943l0,-1178C875,-294 879,-331 887,-348C895,-365 908,-378 925,-387C942,-396 975,-401 1024,-401l0,-37l-462,0l0,37l19,0C618,-401 647,-396 666,-385C679,-378 690,-364 698,-345C706,-326 710,-290 710,-235l0,394C649,87 596,38 551,12C506,-15 459,-28 410,-28C321,-28 242,12 173,93C103,174 68,282 68,417C68,572 114,699 206,797C298,894 409,943 539,943C577,943 612,938 644,927C676,916 705,900 730,879C769,898 806,919 841,943M710,222l0,430C710,702 704,741 691,770C678,799 654,823 621,843C588,863 550,873 508,873C433,873 369,841 316,778C263,715 236,619 236,490C236,367 263,273 318,209C372,145 437,113 514,113C553,113 588,122 619,139C650,156 680,183 710,222z" unicode="q"></glyph><glyph d="M332,943l0,-206C409,874 487,943 568,943C605,943 635,932 659,910C683,887 695,861 695,832C695,806 686,784 669,766C652,748 631,739 607,739C584,739 558,751 529,774C500,797 478,808 464,808C452,808 439,801 425,788C395,761 364,716 332,653l0,-439C332,163 338,125 351,99C360,81 375,66 397,54C419,42 451,36 492,36l0,-36l-469,0l0,36C70,36 104,43 127,58C144,69 155,86 162,109C165,120 167,153 167,206l0,355C167,668 165,731 161,752C156,772 148,787 137,796C125,805 110,810 93,810C72,810 49,805 23,795l-10,36l277,112z" unicode="r"></glyph><glyph d="M656,943l0,-312l-33,0C598,729 565,796 526,831C486,866 435,884 374,884C327,884 290,872 261,847C232,822 218,795 218,765C218,728 229,696 250,669C271,642 313,613 376,582l146,-71C657,445 725,358 725,250C725,167 694,100 631,49C568,-2 497,-28 419,-28C363,-28 299,-18 227,2C205,9 187,12 173,12C158,12 146,3 137,-14l-33,0l0,327l33,0C156,220 191,149 244,102C297,55 356,31 421,31C467,31 505,45 534,72C563,99 577,131 577,169C577,215 561,254 529,285C496,316 432,356 335,404C238,452 175,495 145,534C115,572 100,620 100,678C100,753 126,816 178,867C229,918 296,943 378,943C414,943 458,935 509,920C543,910 566,905 577,905C588,905 596,907 602,912C608,917 615,927 623,943z" unicode="s"></glyph><glyph d="M330,1217l0,-301l214,0l0,-70l-214,0l0,-594C330,193 339,153 356,132C373,111 394,101 421,101C443,101 464,108 485,122C506,135 522,155 533,182l39,0C549,117 516,68 473,35C430,2 386,-15 341,-15C310,-15 280,-6 251,11C222,28 200,52 186,84C172,115 165,164 165,230l0,616l-145,0l0,33C57,894 94,919 133,954C171,989 205,1030 235,1078C250,1103 272,1150 299,1217z" unicode="t"></glyph><glyph d="M867,916l0,-555C867,255 870,190 875,167C880,143 888,126 899,117C910,108 922,103 937,103C958,103 981,109 1007,120l14,-35l-274,-113l-45,0l0,194C623,81 563,27 522,5C481,-17 437,-28 391,-28C340,-28 295,-13 258,17C220,46 194,84 179,131C164,178 157,244 157,329l0,409C157,781 152,811 143,828C134,845 120,858 102,867C83,876 50,880 2,879l0,37l321,0l0,-613C323,218 338,162 368,135C397,108 433,95 475,95C504,95 536,104 573,122C609,140 652,174 702,225l0,519C702,796 693,831 674,850C655,868 615,878 555,879l0,37z" unicode="u"></glyph><glyph d="M17,916l431,0l0,-37l-28,0C394,879 374,873 361,860C347,847 340,830 340,809C340,786 347,758 361,726l213,-506l214,525C803,782 811,811 811,830C811,839 808,847 803,853C796,863 786,870 775,874C764,877 741,879 706,879l0,37l299,0l0,-37C970,876 946,869 933,858C910,838 889,805 870,758l-325,-786l-41,0l-327,773C162,781 148,807 135,823C122,838 105,851 84,862C73,868 50,874 17,879z" unicode="v"></glyph><glyph d="M13,916l384,0l0,-37C362,876 339,870 328,860C317,850 311,836 311,817C311,796 317,771 328,742l196,-527l197,429l-52,135C653,819 632,847 606,862C591,871 564,877 524,879l0,37l436,0l0,-37C912,877 878,868 858,853C845,842 838,825 838,802C838,789 841,775 846,761l208,-526l193,507C1260,778 1267,807 1267,828C1267,841 1261,852 1248,862C1235,872 1209,878 1171,879l0,37l289,0l0,-37C1402,870 1359,831 1332,761l-306,-789l-41,0l-229,585l-267,-585l-37,0l-294,770C139,791 120,824 101,841C82,858 53,870 13,879z" unicode="w"></glyph><glyph d="M27,916l431,0l0,-37C431,879 412,874 401,865C390,856 384,843 384,828C384,812 396,787 419,754C426,743 437,727 452,704l65,-104l75,104C640,770 664,812 664,829C664,843 658,855 647,865C636,874 617,879 592,879l0,37l310,0l0,-37C869,877 841,868 817,852C784,829 740,780 683,704l-125,-167l228,-328C842,128 882,80 906,64C930,47 961,38 999,36l0,-36l-432,0l0,36C597,36 620,43 637,56C650,65 656,78 656,93C656,108 635,147 592,209l-134,196l-147,-196C266,148 243,112 243,101C243,85 251,71 266,58C281,45 303,37 333,36l0,-36l-299,0l0,36C58,39 79,48 97,61C122,80 165,130 225,209l192,255l-174,252C194,788 156,833 129,852C102,870 68,879 27,879z" unicode="x"></glyph><glyph d="M12,916l427,0l0,-37l-21,0C388,879 366,873 351,860C336,847 328,830 328,811C328,785 339,749 361,703l223,-462l205,506C800,774 806,801 806,828C806,840 804,849 799,855C794,862 785,868 774,873C763,877 743,879 714,879l0,37l298,0l0,-37C987,876 968,871 955,863C942,855 927,840 911,818C905,809 894,783 877,741l-373,-914C468,-262 421,-329 363,-374C304,-419 248,-442 194,-442C155,-442 122,-431 97,-408C72,-385 59,-359 59,-330C59,-302 68,-279 87,-262C105,-245 130,-237 162,-237C184,-237 214,-244 252,-259C279,-269 295,-274 302,-274C322,-274 344,-264 368,-243C391,-222 415,-182 439,-123l65,159l-329,691C165,748 149,773 127,804C110,827 97,843 86,851C71,862 46,871 12,879z" unicode="y"></glyph><glyph d="M860,281l-11,-281l-808,0l0,36l608,810l-300,0C284,846 242,842 222,834C202,825 186,809 173,786C155,753 145,711 142,662l-40,0l6,254l768,0l0,-37l-614,-812l334,0C666,67 714,73 739,85C764,96 784,117 799,146C810,167 819,212 826,281z" unicode="z"></glyph><glyph d="M841,-407l0,-35C730,-427 639,-381 570,-306C500,-231 465,-148 465,-57C465,-9 473,47 488,111C503,174 511,224 511,259C511,307 491,352 451,394C410,435 354,461 283,470l0,41C354,520 410,546 451,587C491,628 511,673 511,722C511,757 503,807 488,870C473,933 465,989 465,1038C465,1129 500,1212 570,1287C639,1362 730,1407 841,1422l0,-35C763,1368 706,1338 670,1296C633,1253 615,1207 615,1156C615,1117 623,1065 638,1001C653,936 660,881 660,836C660,769 635,703 586,640C537,577 463,528 365,493C461,458 534,408 585,343C635,278 660,212 660,145C660,100 653,45 638,-19C623,-84 615,-136 615,-175C615,-226 633,-272 670,-314C706,-357 763,-388 841,-407z" unicode="{"></glyph><glyph d="M244,1422l0,-1864l-83,0l0,1864z" unicode="|"></glyph><glyph d="M177,1387l0,35C288,1407 379,1363 449,1288C518,1213 553,1129 553,1037C553,989 545,933 530,870C515,807 507,757 507,722C507,674 527,629 568,588C608,546 664,520 735,511l0,-41C664,461 608,435 568,394C527,352 507,307 507,259C507,224 515,174 530,111C545,47 553,-9 553,-57C553,-148 518,-231 449,-306C379,-381 288,-427 177,-442l0,35C255,-388 312,-357 349,-315C385,-273 403,-226 403,-175C403,-136 395,-84 380,-19C365,45 357,99 357,144C357,212 382,278 432,341C481,404 555,453 653,488C557,523 484,573 433,638C382,703 357,769 357,836C357,881 365,936 380,1001C395,1065 403,1117 403,1156C403,1207 385,1253 349,1296C312,1338 255,1368 177,1387z" unicode="}"></glyph><glyph d="M1042,675l45,0C1084,588 1060,521 1013,472C966,423 909,398 842,398C811,398 778,403 743,414C708,424 616,459 469,519C366,562 293,583 250,583C203,583 164,569 132,540C100,511 77,465 64,400l-44,0C24,490 49,559 94,607C139,654 193,678 254,678C283,678 313,673 344,664C413,644 505,610 618,562C731,513 810,489 856,489C906,489 948,505 982,537C1016,569 1036,615 1042,675z" unicode="~"></glyph><glyph d="M937,454l-525,0l-92,-214C297,187 286,148 286,122C286,101 296,83 316,68C335,52 378,42 443,37l0,-37l-427,0l0,37C73,47 109,60 126,76C160,108 198,173 239,271l477,1116l35,0l472,-1128C1261,168 1296,110 1327,83C1358,56 1401,40 1456,37l0,-37l-535,0l0,37C975,40 1012,49 1031,64C1050,79 1059,98 1059,120C1059,149 1046,196 1019,259M909,528l-230,548l-236,-548M911,1708C941,1708 967,1697 988,1676C1009,1655 1019,1629 1019,1599C1019,1569 1009,1544 988,1523C967,1502 941,1491 911,1491C881,1491 855,1502 834,1523C813,1544 802,1569 802,1599C802,1629 813,1655 834,1676C855,1697 881,1708 911,1708M558,1708C589,1708 615,1697 636,1676C657,1655 667,1629 667,1599C667,1569 656,1544 635,1523C614,1502 588,1491 559,1491C529,1491 503,1502 482,1523C461,1544 450,1569 450,1599C450,1629 461,1655 482,1676C503,1697 528,1708 558,1708z" unicode="Ä"></glyph><glyph d="M937,454l-525,0l-92,-214C297,187 286,148 286,122C286,101 296,83 316,68C335,52 378,42 443,37l0,-37l-427,0l0,37C73,47 109,60 126,76C160,108 198,173 239,271l477,1116l35,0l472,-1128C1261,168 1296,110 1327,83C1358,56 1401,40 1456,37l0,-37l-535,0l0,37C975,40 1012,49 1031,64C1050,79 1059,98 1059,120C1059,149 1046,196 1019,259M909,528l-230,548l-236,-548M731,1701C784,1701 830,1682 867,1645C904,1608 923,1563 923,1510C923,1457 904,1411 867,1374C830,1337 784,1318 731,1318C678,1318 633,1337 596,1374C559,1411 540,1457 540,1510C540,1563 559,1608 596,1645C633,1682 678,1701 731,1701M731,1632C697,1632 668,1620 645,1597C621,1573 609,1544 609,1510C609,1477 621,1448 645,1424C668,1400 697,1388 731,1388C765,1388 794,1400 818,1424C841,1448 853,1477 853,1510C853,1544 841,1573 818,1597C794,1620 765,1632 731,1632z" unicode="Å"></glyph><glyph d="M1233,1387l31,-461l-31,0C1192,1064 1133,1163 1056,1224C979,1285 887,1315 780,1315C690,1315 609,1292 536,1247C463,1201 406,1128 365,1028C323,928 302,804 302,655C302,532 322,426 361,336C400,246 460,177 539,129C618,81 708,57 809,57C897,57 975,76 1042,114C1109,151 1183,226 1264,338l31,-20C1227,197 1148,109 1057,53C966,-3 859,-31 734,-31C509,-31 335,52 212,219C120,343 74,489 74,657C74,792 104,917 165,1030C226,1143 309,1231 416,1294C522,1356 638,1387 764,1387C862,1387 959,1363 1054,1315C1082,1300 1102,1293 1114,1293C1132,1293 1148,1299 1161,1312C1178,1330 1191,1355 1198,1387M698,16l60,0l-50,-79C750,-74 781,-92 802,-117C823,-142 833,-173 833,-209C833,-257 813,-299 773,-335C733,-372 681,-390 618,-390C593,-390 562,-388 524,-383l0,43C543,-343 559,-344 572,-344C606,-344 635,-333 658,-310C681,-288 693,-263 693,-234C693,-214 685,-197 670,-182C655,-167 636,-160 613,-160C606,-160 598,-161 587,-162z" unicode="Ç"></glyph><glyph d="M428,1282l0,-536l298,0C803,746 855,758 881,781C916,812 935,866 939,943l37,0l0,-472l-37,0C930,537 920,579 911,598C899,621 879,640 852,653C825,666 783,673 726,673l-298,0l0,-447C428,166 431,130 436,117C441,104 451,93 464,86C477,78 503,74 540,74l230,0C847,74 902,79 937,90C972,101 1005,122 1037,153C1078,194 1121,257 1164,340l40,0l-117,-340l-1045,0l0,37l48,0C122,37 152,45 181,60C202,71 217,87 225,108C232,129 236,173 236,239l0,881C236,1206 227,1259 210,1279C186,1306 146,1319 90,1319l-48,0l0,37l1045,0l15,-297l-39,0C1049,1130 1034,1179 1017,1206C1000,1233 974,1253 941,1267C914,1277 867,1282 800,1282M853,1797l-295,-345l-34,0l105,345z" unicode="É"></glyph><glyph d="M-27,1356l368,0l829,-1017l0,782C1170,1204 1161,1256 1142,1277C1117,1305 1078,1319 1025,1319l-47,0l0,37l472,0l0,-37l-48,0C1345,1319 1304,1302 1280,1267C1265,1246 1258,1197 1258,1121l0,-1143l-36,0l-894,1092l0,-835C328,152 337,100 355,79C380,51 419,37 472,37l48,0l0,-37l-472,0l0,37l47,0C153,37 194,54 218,89C233,110 240,159 240,235l0,943C201,1224 171,1254 151,1269C130,1284 100,1297 61,1310C42,1316 12,1319 -27,1319M448,1465l-32,0C419,1556 438,1622 473,1663C508,1704 552,1724 604,1724C631,1724 656,1720 679,1711C709,1700 752,1676 807,1640C862,1603 902,1585 929,1585C950,1585 969,1594 986,1612C1002,1630 1015,1667 1024,1724l31,0C1056,1662 1048,1613 1031,1577C1014,1540 990,1512 959,1492C928,1471 896,1461 865,1461C812,1461 747,1488 669,1541C627,1570 599,1587 584,1593C569,1599 555,1602 541,1602C514,1602 492,1590 476,1566C469,1555 459,1521 448,1465z" unicode="Ñ"></glyph><glyph d="M749,1387C925,1387 1078,1320 1207,1187C1336,1053 1400,886 1400,686C1400,480 1335,309 1205,173C1075,37 918,-31 733,-31C546,-31 390,35 263,168C136,301 72,472 72,683C72,898 145,1074 292,1210C419,1328 572,1387 749,1387M730,1314C609,1314 511,1269 438,1179C347,1067 301,903 301,687C301,466 348,295 443,176C516,85 612,40 731,40C858,40 964,90 1047,189C1130,288 1171,445 1171,659C1171,891 1125,1064 1034,1178C961,1269 859,1314 730,1314M909,1708C939,1708 965,1697 986,1676C1007,1655 1017,1629 1017,1599C1017,1569 1007,1544 986,1523C965,1502 939,1491 909,1491C879,1491 853,1502 832,1523C811,1544 800,1569 800,1599C800,1629 811,1655 832,1676C853,1697 879,1708 909,1708M556,1708C587,1708 613,1697 634,1676C655,1655 665,1629 665,1599C665,1569 654,1544 633,1523C612,1502 586,1491 557,1491C527,1491 501,1502 480,1523C459,1544 448,1569 448,1599C448,1629 459,1655 480,1676C501,1697 526,1708 556,1708z" unicode="Ö"></glyph><glyph d="M977,1319l0,37l480,0l0,-37l-51,0C1353,1319 1312,1297 1283,1252C1269,1231 1262,1183 1262,1108l0,-550C1262,422 1249,317 1222,242C1195,167 1142,102 1063,49C984,-5 876,-32 740,-32C592,-32 480,-6 403,45C326,96 272,165 240,252C219,311 208,423 208,586l0,530C208,1199 197,1254 174,1280C151,1306 113,1319 62,1319l-51,0l0,37l586,0l0,-37l-52,0C489,1319 449,1301 425,1266C408,1242 400,1192 400,1116l0,-591C400,472 405,412 415,344C424,276 442,223 467,185C492,147 529,116 577,91C624,66 683,54 752,54C841,54 920,73 990,112C1060,151 1108,200 1134,261C1159,321 1172,423 1172,567l0,549C1172,1201 1163,1254 1144,1275C1118,1304 1079,1319 1028,1319M960,1708C990,1708 1016,1697 1037,1676C1058,1655 1068,1629 1068,1599C1068,1569 1058,1544 1037,1523C1016,1502 990,1491 960,1491C930,1491 904,1502 883,1523C862,1544 851,1569 851,1599C851,1629 862,1655 883,1676C904,1697 930,1708 960,1708M607,1708C638,1708 664,1697 685,1676C706,1655 716,1629 716,1599C716,1569 705,1544 684,1523C663,1502 637,1491 608,1491C578,1491 552,1502 531,1523C510,1544 499,1569 499,1599C499,1629 510,1655 531,1676C552,1697 577,1708 607,1708z" unicode="Ü"></glyph><glyph d="M583,132C489,59 430,17 406,6C370,-11 332,-19 291,-19C228,-19 176,3 135,46C94,89 73,146 73,217C73,262 83,300 103,333C130,378 178,421 246,461C313,501 426,550 583,607l0,36C583,734 569,797 540,831C511,865 468,882 413,882C371,882 338,871 313,848C288,825 275,799 275,770l2,-58C277,681 269,658 254,641C238,624 217,616 192,616C167,616 147,625 132,642C116,659 108,683 108,713C108,770 137,823 196,871C255,919 337,943 443,943C524,943 591,929 643,902C682,881 711,849 730,805C742,776 748,718 748,629l0,-311C748,231 750,177 753,158C756,138 762,125 770,118C777,111 786,108 796,108C807,108 816,110 824,115C838,124 865,148 905,188l0,-56C830,32 759,-18 691,-18C658,-18 632,-7 613,16C594,39 584,77 583,132M583,197l0,349C482,506 417,478 388,461C335,432 298,401 275,369C252,337 241,302 241,264C241,216 255,176 284,145C313,113 346,97 383,97C434,97 500,130 583,197M682,1390l-295,-345l-34,0l105,345z" unicode="á"></glyph><glyph d="M583,132C489,59 430,17 406,6C370,-11 332,-19 291,-19C228,-19 176,3 135,46C94,89 73,146 73,217C73,262 83,300 103,333C130,378 178,421 246,461C313,501 426,550 583,607l0,36C583,734 569,797 540,831C511,865 468,882 413,882C371,882 338,871 313,848C288,825 275,799 275,770l2,-58C277,681 269,658 254,641C238,624 217,616 192,616C167,616 147,625 132,642C116,659 108,683 108,713C108,770 137,823 196,871C255,919 337,943 443,943C524,943 591,929 643,902C682,881 711,849 730,805C742,776 748,718 748,629l0,-311C748,231 750,177 753,158C756,138 762,125 770,118C777,111 786,108 796,108C807,108 816,110 824,115C838,124 865,148 905,188l0,-56C830,32 759,-18 691,-18C658,-18 632,-7 613,16C594,39 584,77 583,132M583,197l0,349C482,506 417,478 388,461C335,432 298,401 275,369C252,337 241,302 241,264C241,216 255,176 284,145C313,113 346,97 383,97C434,97 500,130 583,197M260,1390l223,0l106,-345l-35,0z" unicode="à"></glyph><glyph d="M583,132C489,59 430,17 406,6C370,-11 332,-19 291,-19C228,-19 176,3 135,46C94,89 73,146 73,217C73,262 83,300 103,333C130,378 178,421 246,461C313,501 426,550 583,607l0,36C583,734 569,797 540,831C511,865 468,882 413,882C371,882 338,871 313,848C288,825 275,799 275,770l2,-58C277,681 269,658 254,641C238,624 217,616 192,616C167,616 147,625 132,642C116,659 108,683 108,713C108,770 137,823 196,871C255,919 337,943 443,943C524,943 591,929 643,902C682,881 711,849 730,805C742,776 748,718 748,629l0,-311C748,231 750,177 753,158C756,138 762,125 770,118C777,111 786,108 796,108C807,108 816,110 824,115C838,124 865,148 905,188l0,-56C830,32 759,-18 691,-18C658,-18 632,-7 613,16C594,39 584,77 583,132M583,197l0,349C482,506 417,478 388,461C335,432 298,401 275,369C252,337 241,302 241,264C241,216 255,176 284,145C313,113 346,97 383,97C434,97 500,130 583,197M366,1385l184,0l190,-331l-31,0l-273,213l-229,-213l-30,0z" unicode="â"></glyph><glyph d="M583,132C489,59 430,17 406,6C370,-11 332,-19 291,-19C228,-19 176,3 135,46C94,89 73,146 73,217C73,262 83,300 103,333C130,378 178,421 246,461C313,501 426,550 583,607l0,36C583,734 569,797 540,831C511,865 468,882 413,882C371,882 338,871 313,848C288,825 275,799 275,770l2,-58C277,681 269,658 254,641C238,624 217,616 192,616C167,616 147,625 132,642C116,659 108,683 108,713C108,770 137,823 196,871C255,919 337,943 443,943C524,943 591,929 643,902C682,881 711,849 730,805C742,776 748,718 748,629l0,-311C748,231 750,177 753,158C756,138 762,125 770,118C777,111 786,108 796,108C807,108 816,110 824,115C838,124 865,148 905,188l0,-56C830,32 759,-18 691,-18C658,-18 632,-7 613,16C594,39 584,77 583,132M583,197l0,349C482,506 417,478 388,461C335,432 298,401 275,369C252,337 241,302 241,264C241,216 255,176 284,145C313,113 346,97 383,97C434,97 500,130 583,197M634,1337C664,1337 690,1326 711,1305C732,1284 742,1258 742,1228C742,1198 732,1173 711,1152C690,1131 664,1120 634,1120C604,1120 578,1131 557,1152C536,1173 525,1198 525,1228C525,1258 536,1284 557,1305C578,1326 604,1337 634,1337M281,1337C312,1337 338,1326 359,1305C380,1284 390,1258 390,1228C390,1198 379,1173 358,1152C337,1131 311,1120 282,1120C252,1120 226,1131 205,1152C184,1173 173,1198 173,1228C173,1258 184,1284 205,1305C226,1326 251,1337 281,1337z" unicode="ä"></glyph><glyph d="M583,132C489,59 430,17 406,6C370,-11 332,-19 291,-19C228,-19 176,3 135,46C94,89 73,146 73,217C73,262 83,300 103,333C130,378 178,421 246,461C313,501 426,550 583,607l0,36C583,734 569,797 540,831C511,865 468,882 413,882C371,882 338,871 313,848C288,825 275,799 275,770l2,-58C277,681 269,658 254,641C238,624 217,616 192,616C167,616 147,625 132,642C116,659 108,683 108,713C108,770 137,823 196,871C255,919 337,943 443,943C524,943 591,929 643,902C682,881 711,849 730,805C742,776 748,718 748,629l0,-311C748,231 750,177 753,158C756,138 762,125 770,118C777,111 786,108 796,108C807,108 816,110 824,115C838,124 865,148 905,188l0,-56C830,32 759,-18 691,-18C658,-18 632,-7 613,16C594,39 584,77 583,132M583,197l0,349C482,506 417,478 388,461C335,432 298,401 275,369C252,337 241,302 241,264C241,216 255,176 284,145C313,113 346,97 383,97C434,97 500,130 583,197M171,1097l-32,0C142,1188 161,1254 196,1295C231,1336 275,1356 327,1356C354,1356 379,1352 402,1343C432,1332 475,1308 530,1272C585,1235 625,1217 652,1217C673,1217 692,1226 709,1244C725,1262 738,1299 747,1356l31,0C779,1294 771,1245 754,1209C737,1172 713,1144 682,1124C651,1103 619,1093 588,1093C535,1093 470,1120 392,1173C350,1202 322,1219 307,1225C292,1231 278,1234 264,1234C237,1234 215,1222 199,1198C192,1187 182,1153 171,1097z" unicode="ã"></glyph><glyph d="M583,132C489,59 430,17 406,6C370,-11 332,-19 291,-19C228,-19 176,3 135,46C94,89 73,146 73,217C73,262 83,300 103,333C130,378 178,421 246,461C313,501 426,550 583,607l0,36C583,734 569,797 540,831C511,865 468,882 413,882C371,882 338,871 313,848C288,825 275,799 275,770l2,-58C277,681 269,658 254,641C238,624 217,616 192,616C167,616 147,625 132,642C116,659 108,683 108,713C108,770 137,823 196,871C255,919 337,943 443,943C524,943 591,929 643,902C682,881 711,849 730,805C742,776 748,718 748,629l0,-311C748,231 750,177 753,158C756,138 762,125 770,118C777,111 786,108 796,108C807,108 816,110 824,115C838,124 865,148 905,188l0,-56C830,32 759,-18 691,-18C658,-18 632,-7 613,16C594,39 584,77 583,132M583,197l0,349C482,506 417,478 388,461C335,432 298,401 275,369C252,337 241,302 241,264C241,216 255,176 284,145C313,113 346,97 383,97C434,97 500,130 583,197M458,1426C511,1426 557,1407 594,1370C631,1333 650,1288 650,1235C650,1182 631,1136 594,1099C557,1062 511,1043 458,1043C405,1043 360,1062 323,1099C286,1136 267,1182 267,1235C267,1288 286,1333 323,1370C360,1407 405,1426 458,1426M458,1357C424,1357 395,1345 372,1322C348,1298 336,1269 336,1235C336,1202 348,1173 372,1149C395,1125 424,1113 458,1113C492,1113 521,1125 545,1149C568,1173 580,1202 580,1235C580,1269 568,1298 545,1322C521,1345 492,1357 458,1357z" unicode="å"></glyph><glyph d="M842,348C817,227 769,135 697,70C625,5 545,-28 458,-28C354,-28 263,16 186,103C109,190 70,308 70,457C70,601 113,718 199,808C284,898 387,943 507,943C597,943 671,919 729,872C787,824 816,774 816,723C816,698 808,677 792,662C775,646 752,638 723,638C684,638 654,651 634,676C623,690 615,717 612,756C608,795 594,825 571,846C548,866 515,876 474,876C407,876 354,851 313,802C259,737 232,650 232,543C232,434 259,337 313,254C366,170 439,128 530,128C595,128 654,150 706,195C743,226 778,281 813,362M470,16l60,0l-50,-79C522,-74 553,-92 574,-117C595,-142 605,-173 605,-209C605,-257 585,-299 545,-335C505,-372 453,-390 390,-390C365,-390 334,-388 296,-383l0,43C315,-343 331,-344 344,-344C378,-344 407,-333 430,-310C453,-288 465,-263 465,-234C465,-214 457,-197 442,-182C427,-167 408,-160 385,-160C378,-160 370,-161 359,-162z" unicode="ç"></glyph><glyph d="M218,571C217,435 250,328 317,251C384,174 462,135 552,135C612,135 664,152 709,185C753,218 790,274 820,354l31,-20C837,243 796,160 729,85C662,10 577,-28 476,-28C366,-28 272,15 194,101C115,186 76,301 76,446C76,603 116,725 197,813C277,900 378,944 499,944C602,944 686,910 752,843C818,775 851,684 851,571M218,629l424,0C639,688 632,729 621,753C604,790 580,820 547,841C514,862 479,873 443,873C388,873 338,852 295,809C251,766 225,706 218,629M695,1390l-295,-345l-34,0l105,345z" unicode="é"></glyph><glyph d="M218,571C217,435 250,328 317,251C384,174 462,135 552,135C612,135 664,152 709,185C753,218 790,274 820,354l31,-20C837,243 796,160 729,85C662,10 577,-28 476,-28C366,-28 272,15 194,101C115,186 76,301 76,446C76,603 116,725 197,813C277,900 378,944 499,944C602,944 686,910 752,843C818,775 851,684 851,571M218,629l424,0C639,688 632,729 621,753C604,790 580,820 547,841C514,862 479,873 443,873C388,873 338,852 295,809C251,766 225,706 218,629M285,1390l223,0l106,-345l-35,0z" unicode="è"></glyph><glyph d="M218,571C217,435 250,328 317,251C384,174 462,135 552,135C612,135 664,152 709,185C753,218 790,274 820,354l31,-20C837,243 796,160 729,85C662,10 577,-28 476,-28C366,-28 272,15 194,101C115,186 76,301 76,446C76,603 116,725 197,813C277,900 378,944 499,944C602,944 686,910 752,843C818,775 851,684 851,571M218,629l424,0C639,688 632,729 621,753C604,790 580,820 547,841C514,862 479,873 443,873C388,873 338,852 295,809C251,766 225,706 218,629M403,1385l184,0l190,-331l-31,0l-273,213l-229,-213l-30,0z" unicode="ê"></glyph><glyph d="M218,571C217,435 250,328 317,251C384,174 462,135 552,135C612,135 664,152 709,185C753,218 790,274 820,354l31,-20C837,243 796,160 729,85C662,10 577,-28 476,-28C366,-28 272,15 194,101C115,186 76,301 76,446C76,603 116,725 197,813C277,900 378,944 499,944C602,944 686,910 752,843C818,775 851,684 851,571M218,629l424,0C639,688 632,729 621,753C604,790 580,820 547,841C514,862 479,873 443,873C388,873 338,852 295,809C251,766 225,706 218,629M671,1336C701,1336 727,1325 748,1304C769,1283 779,1257 779,1227C779,1197 769,1172 748,1151C727,1130 701,1119 671,1119C641,1119 615,1130 594,1151C573,1172 562,1197 562,1227C562,1257 573,1283 594,1304C615,1325 641,1336 671,1336M318,1336C349,1336 375,1325 396,1304C417,1283 427,1257 427,1227C427,1197 416,1172 395,1151C374,1130 348,1119 319,1119C289,1119 263,1130 242,1151C221,1172 210,1197 210,1227C210,1257 221,1283 242,1304C263,1325 288,1336 318,1336z" unicode="ë"></glyph><glyph d="M379,943l0,-736C379,150 383,112 392,93C401,74 413,59 430,50C446,41 476,36 519,36l0,-36l-445,0l0,36C119,36 149,40 164,49C179,58 192,72 201,92C210,112 214,150 214,207l0,353C214,659 211,724 205,753C200,774 193,789 183,798C173,806 159,810 142,810C123,810 101,805 74,795l-14,36l276,112M498,1390l-295,-345l-34,0l105,345z" unicode="í"></glyph><glyph d="M379,943l0,-736C379,150 383,112 392,93C401,74 413,59 430,50C446,41 476,36 519,36l0,-36l-445,0l0,36C119,36 149,40 164,49C179,58 192,72 201,92C210,112 214,150 214,207l0,353C214,659 211,724 205,753C200,774 193,789 183,798C173,806 159,810 142,810C123,810 101,805 74,795l-14,36l276,112M77,1390l223,0l106,-345l-35,0z" unicode="ì"></glyph><glyph d="M379,943l0,-736C379,150 383,112 392,93C401,74 413,59 430,50C446,41 476,36 519,36l0,-36l-445,0l0,36C119,36 149,40 164,49C179,58 192,72 201,92C210,112 214,150 214,207l0,353C214,659 211,724 205,753C200,774 193,789 183,798C173,806 159,810 142,810C123,810 101,805 74,795l-14,36l276,112M202,1385l184,0l190,-331l-31,0l-273,213l-229,-213l-30,0z" unicode="î"></glyph><glyph d="M379,943l0,-736C379,150 383,112 392,93C401,74 413,59 430,50C446,41 476,36 519,36l0,-36l-445,0l0,36C119,36 149,40 164,49C179,58 192,72 201,92C210,112 214,150 214,207l0,353C214,659 211,724 205,753C200,774 193,789 183,798C173,806 159,810 142,810C123,810 101,805 74,795l-14,36l276,112M463,1336C493,1336 519,1325 540,1304C561,1283 571,1257 571,1227C571,1197 561,1172 540,1151C519,1130 493,1119 463,1119C433,1119 407,1130 386,1151C365,1172 354,1197 354,1227C354,1257 365,1283 386,1304C407,1325 433,1336 463,1336M110,1336C141,1336 167,1325 188,1304C209,1283 219,1257 219,1227C219,1197 208,1172 187,1151C166,1130 140,1119 111,1119C81,1119 55,1130 34,1151C13,1172 2,1197 2,1227C2,1257 13,1283 34,1304C55,1325 80,1336 110,1336z" unicode="ï"></glyph><glyph d="M331,749C438,878 541,943 638,943C688,943 731,931 767,906C803,881 832,839 853,782C868,742 875,681 875,598l0,-391C875,149 880,110 889,89C896,72 908,59 925,50C941,41 971,36 1015,36l0,-36l-453,0l0,36l19,0C624,36 654,43 671,56C688,69 699,88 706,113C709,123 710,154 710,207l0,375C710,665 699,726 678,764C656,801 619,820 568,820C489,820 410,777 331,690l0,-483C331,145 335,107 342,92C351,73 364,59 381,50C397,41 430,36 480,36l0,-36l-453,0l0,36l20,0C94,36 125,48 142,72C158,95 166,140 166,207l0,340C166,657 164,724 159,748C154,772 146,788 136,797C125,806 111,810 94,810C75,810 53,805 27,795l-15,36l276,112l43,0M225,1097l-32,0C196,1188 215,1254 250,1295C285,1336 329,1356 381,1356C408,1356 433,1352 456,1343C486,1332 529,1308 584,1272C639,1235 679,1217 706,1217C727,1217 746,1226 763,1244C779,1262 792,1299 801,1356l31,0C833,1294 825,1245 808,1209C791,1172 767,1144 736,1124C705,1103 673,1093 642,1093C589,1093 524,1120 446,1173C404,1202 376,1219 361,1225C346,1231 332,1234 318,1234C291,1234 269,1222 253,1198C246,1187 236,1153 225,1097z" unicode="ñ"></glyph><glyph d="M512,943C651,943 762,890 846,785C917,695 953,592 953,475C953,393 933,310 894,226C855,142 801,79 732,36C663,-7 586,-28 501,-28C363,-28 253,27 172,137C103,230 69,334 69,449C69,533 90,617 132,700C173,783 228,844 296,884C364,923 436,943 512,943M481,878C446,878 410,868 375,847C339,826 310,789 288,736C266,683 255,616 255,533C255,400 282,285 335,188C388,91 457,43 544,43C609,43 662,70 704,123C746,176 767,268 767,398C767,561 732,689 662,782C615,846 554,878 481,878M723,1390l-295,-345l-34,0l105,345z" unicode="ó"></glyph><glyph d="M512,943C651,943 762,890 846,785C917,695 953,592 953,475C953,393 933,310 894,226C855,142 801,79 732,36C663,-7 586,-28 501,-28C363,-28 253,27 172,137C103,230 69,334 69,449C69,533 90,617 132,700C173,783 228,844 296,884C364,923 436,943 512,943M481,878C446,878 410,868 375,847C339,826 310,789 288,736C266,683 255,616 255,533C255,400 282,285 335,188C388,91 457,43 544,43C609,43 662,70 704,123C746,176 767,268 767,398C767,561 732,689 662,782C615,846 554,878 481,878M301,1390l223,0l106,-345l-35,0z" unicode="ò"></glyph><glyph d="M512,943C651,943 762,890 846,785C917,695 953,592 953,475C953,393 933,310 894,226C855,142 801,79 732,36C663,-7 586,-28 501,-28C363,-28 253,27 172,137C103,230 69,334 69,449C69,533 90,617 132,700C173,783 228,844 296,884C364,923 436,943 512,943M481,878C446,878 410,868 375,847C339,826 310,789 288,736C266,683 255,616 255,533C255,400 282,285 335,188C388,91 457,43 544,43C609,43 662,70 704,123C746,176 767,268 767,398C767,561 732,689 662,782C615,846 554,878 481,878M431,1385l184,0l190,-331l-31,0l-273,213l-229,-213l-30,0z" unicode="ô"></glyph><glyph d="M512,943C651,943 762,890 846,785C917,695 953,592 953,475C953,393 933,310 894,226C855,142 801,79 732,36C663,-7 586,-28 501,-28C363,-28 253,27 172,137C103,230 69,334 69,449C69,533 90,617 132,700C173,783 228,844 296,884C364,923 436,943 512,943M481,878C446,878 410,868 375,847C339,826 310,789 288,736C266,683 255,616 255,533C255,400 282,285 335,188C388,91 457,43 544,43C609,43 662,70 704,123C746,176 767,268 767,398C767,561 732,689 662,782C615,846 554,878 481,878M687,1336C717,1336 743,1325 764,1304C785,1283 795,1257 795,1227C795,1197 785,1172 764,1151C743,1130 717,1119 687,1119C657,1119 631,1130 610,1151C589,1172 578,1197 578,1227C578,1257 589,1283 610,1304C631,1325 657,1336 687,1336M334,1336C365,1336 391,1325 412,1304C433,1283 443,1257 443,1227C443,1197 432,1172 411,1151C390,1130 364,1119 335,1119C305,1119 279,1130 258,1151C237,1172 226,1197 226,1227C226,1257 237,1283 258,1304C279,1325 304,1336 334,1336z" unicode="ö"></glyph><glyph d="M512,943C651,943 762,890 846,785C917,695 953,592 953,475C953,393 933,310 894,226C855,142 801,79 732,36C663,-7 586,-28 501,-28C363,-28 253,27 172,137C103,230 69,334 69,449C69,533 90,617 132,700C173,783 228,844 296,884C364,923 436,943 512,943M481,878C446,878 410,868 375,847C339,826 310,789 288,736C266,683 255,616 255,533C255,400 282,285 335,188C388,91 457,43 544,43C609,43 662,70 704,123C746,176 767,268 767,398C767,561 732,689 662,782C615,846 554,878 481,878M224,1097l-32,0C195,1188 214,1254 249,1295C284,1336 328,1356 380,1356C407,1356 432,1352 455,1343C485,1332 528,1308 583,1272C638,1235 678,1217 705,1217C726,1217 745,1226 762,1244C778,1262 791,1299 800,1356l31,0C832,1294 824,1245 807,1209C790,1172 766,1144 735,1124C704,1103 672,1093 641,1093C588,1093 523,1120 445,1173C403,1202 375,1219 360,1225C345,1231 331,1234 317,1234C290,1234 268,1222 252,1198C245,1187 235,1153 224,1097z" unicode="õ"></glyph><glyph d="M867,916l0,-555C867,255 870,190 875,167C880,143 888,126 899,117C910,108 922,103 937,103C958,103 981,109 1007,120l14,-35l-274,-113l-45,0l0,194C623,81 563,27 522,5C481,-17 437,-28 391,-28C340,-28 295,-13 258,17C220,46 194,84 179,131C164,178 157,244 157,329l0,409C157,781 152,811 143,828C134,845 120,858 102,867C83,876 50,880 2,879l0,37l321,0l0,-613C323,218 338,162 368,135C397,108 433,95 475,95C504,95 536,104 573,122C609,140 652,174 702,225l0,519C702,796 693,831 674,850C655,868 615,878 555,879l0,37M699,1390l-295,-345l-34,0l105,345z" unicode="ú"></glyph><glyph d="M867,916l0,-555C867,255 870,190 875,167C880,143 888,126 899,117C910,108 922,103 937,103C958,103 981,109 1007,120l14,-35l-274,-113l-45,0l0,194C623,81 563,27 522,5C481,-17 437,-28 391,-28C340,-28 295,-13 258,17C220,46 194,84 179,131C164,178 157,244 157,329l0,409C157,781 152,811 143,828C134,845 120,858 102,867C83,876 50,880 2,879l0,37l321,0l0,-613C323,218 338,162 368,135C397,108 433,95 475,95C504,95 536,104 573,122C609,140 652,174 702,225l0,519C702,796 693,831 674,850C655,868 615,878 555,879l0,37M307,1390l223,0l106,-345l-35,0z" unicode="ù"></glyph><glyph d="M867,916l0,-555C867,255 870,190 875,167C880,143 888,126 899,117C910,108 922,103 937,103C958,103 981,109 1007,120l14,-35l-274,-113l-45,0l0,194C623,81 563,27 522,5C481,-17 437,-28 391,-28C340,-28 295,-13 258,17C220,46 194,84 179,131C164,178 157,244 157,329l0,409C157,781 152,811 143,828C134,845 120,858 102,867C83,876 50,880 2,879l0,37l321,0l0,-613C323,218 338,162 368,135C397,108 433,95 475,95C504,95 536,104 573,122C609,140 652,174 702,225l0,519C702,796 693,831 674,850C655,868 615,878 555,879l0,37M423,1385l184,0l190,-331l-31,0l-273,213l-229,-213l-30,0z" unicode="û"></glyph><glyph d="M867,916l0,-555C867,255 870,190 875,167C880,143 888,126 899,117C910,108 922,103 937,103C958,103 981,109 1007,120l14,-35l-274,-113l-45,0l0,194C623,81 563,27 522,5C481,-17 437,-28 391,-28C340,-28 295,-13 258,17C220,46 194,84 179,131C164,178 157,244 157,329l0,409C157,781 152,811 143,828C134,845 120,858 102,867C83,876 50,880 2,879l0,37l321,0l0,-613C323,218 338,162 368,135C397,108 433,95 475,95C504,95 536,104 573,122C609,140 652,174 702,225l0,519C702,796 693,831 674,850C655,868 615,878 555,879l0,37M687,1336C717,1336 743,1325 764,1304C785,1283 795,1257 795,1227C795,1197 785,1172 764,1151C743,1130 717,1119 687,1119C657,1119 631,1130 610,1151C589,1172 578,1197 578,1227C578,1257 589,1283 610,1304C631,1325 657,1336 687,1336M334,1336C365,1336 391,1325 412,1304C433,1283 443,1257 443,1227C443,1197 432,1172 411,1151C390,1130 364,1119 335,1119C305,1119 279,1130 258,1151C237,1172 226,1197 226,1227C226,1257 237,1283 258,1304C279,1325 304,1336 334,1336z" unicode="ü"></glyph><glyph d="M524,-421l-37,0C484,-130 474,104 455,281C441,414 418,540 386,659C420,688 444,719 459,752C474,785 483,833 487,896C444,891 400,880 355,861C285,832 234,817 202,817C172,817 148,826 129,844C110,862 101,885 101,912C101,940 111,964 131,983C150,1002 175,1011 204,1011C221,1011 236,1009 250,1005C257,1003 292,988 355,961C395,944 439,934 487,931C486,958 484,979 480,993C475,1014 465,1042 450,1079C414,1164 396,1229 396,1273C396,1312 407,1343 429,1367C451,1391 477,1403 508,1403C536,1403 561,1391 584,1366C606,1341 617,1310 617,1273C617,1253 614,1233 609,1213C602,1187 587,1145 564,1088C540,1030 527,978 524,931C571,935 615,945 656,961C722,987 760,1001 771,1004C786,1008 801,1010 816,1010C848,1010 874,1001 894,982C913,963 923,940 923,912C923,885 913,863 894,844C874,825 849,816 820,816C783,816 728,832 655,863C623,876 600,885 586,888C572,891 551,894 524,896C527,833 537,785 552,751C567,717 591,686 624,659C592,537 570,416 557,296C544,175 533,-64 524,-421z" unicode="†"></glyph><glyph d="M405,1386C491,1386 564,1356 624,1296C683,1236 713,1163 713,1078C713,993 683,921 623,861C563,801 490,771 405,771C320,771 248,801 188,861C128,921 98,993 98,1078C98,1163 128,1236 188,1296C247,1356 320,1386 405,1386M405,1302C343,1302 290,1280 247,1237C204,1194 182,1141 182,1079C182,1018 204,965 247,922C290,878 343,856 405,856C466,856 519,878 563,922C606,965 628,1018 628,1079C628,1141 606,1194 563,1237C520,1280 467,1302 405,1302z" unicode="°"></glyph><glyph d="M900,349C869,224 814,126 737,57C677,3 603,-24 516,-24C462,-24 408,-12 354,11l-142,-390l-70,0l155,427C243,99 204,150 180,202C146,275 129,359 129,452C129,621 181,751 286,842C366,912 457,947 559,947C572,947 593,946 620,943l140,383l72,0l-145,-402C754,894 800,865 825,837C857,801 873,763 873,722C873,696 865,675 849,660C833,645 810,637 779,637C742,637 714,650 693,675C681,690 672,717 667,757C664,778 659,799 650,822l-228,-631C459,166 491,149 516,140C535,133 558,130 585,130C626,130 665,139 702,156C739,173 768,193 787,216C806,239 834,287 870,362M370,250l223,615C574,873 554,877 533,877C465,877 411,852 371,803C316,736 289,647 289,535C289,485 295,439 307,397C318,355 339,306 370,250z" unicode="¢"></glyph><glyph d="M723,659l-258,0C466,628 466,606 466,591C466,528 462,470 453,417C444,364 427,302 404,233C535,191 609,168 628,164C663,156 697,152 730,152C785,152 830,165 865,191C900,216 925,257 941,312l36,-9C963,196 929,114 874,59C819,4 757,-24 690,-24C645,-24 604,-16 567,1C530,17 463,62 364,136C337,83 309,43 278,16C247,-11 213,-24 178,-24C145,-24 117,-12 95,11C72,34 61,65 61,105C61,150 76,187 107,217C138,246 177,261 225,261C236,261 249,260 263,259C277,258 293,256 310,253C311,270 312,285 313,298C313,311 313,321 313,330C313,389 306,498 292,659l-194,0l0,95l194,0C283,853 279,920 279,953C279,1034 295,1109 328,1176C361,1243 406,1295 464,1331C521,1366 583,1384 649,1384C733,1384 796,1361 839,1316C881,1271 902,1225 902,1180C902,1159 894,1140 878,1123C861,1106 843,1098 824,1098C799,1098 778,1111 761,1136C754,1148 749,1174 746,1214C743,1253 732,1282 712,1301C691,1320 662,1329 625,1329C572,1329 529,1308 495,1267C460,1226 443,1153 443,1049C443,1000 447,938 455,862C460,812 463,776 465,754l258,0M298,172C283,181 269,188 255,193C241,198 227,200 213,200C183,200 160,192 143,176C126,159 118,138 118,112C118,88 125,69 138,55C151,41 166,34 183,34C205,34 227,44 248,65C269,86 285,121 298,172z" unicode="£"></glyph><glyph d="M377,843C332,892 301,937 282,978C263,1019 253,1060 253,1102C253,1180 280,1247 335,1302C390,1357 457,1384 537,1384C610,1384 671,1362 719,1317C766,1272 790,1221 790,1164C790,1138 781,1115 764,1095C751,1081 734,1074 711,1074C688,1074 670,1082 655,1097C640,1112 633,1130 633,1151C633,1161 636,1179 641,1204C644,1219 646,1234 646,1247C646,1274 636,1297 617,1315C598,1333 571,1342 537,1342C488,1342 447,1325 414,1291C380,1257 363,1216 363,1167C363,1124 372,1089 390,1061C420,1014 470,965 541,914C675,817 767,731 816,654C851,599 868,542 868,482C868,421 850,361 815,300C780,239 724,186 647,140C694,89 726,44 744,7C761,-30 770,-71 770,-114C770,-195 743,-263 688,-318C633,-373 566,-400 486,-400C414,-400 354,-377 307,-331C259,-286 235,-234 235,-175C235,-150 243,-129 259,-112C274,-95 292,-87 313,-87C334,-87 351,-95 366,-110C381,-126 388,-147 388,-174C388,-192 385,-212 380,-233C375,-255 372,-272 372,-283C372,-302 380,-318 397,-331C423,-351 455,-361 492,-361C537,-361 577,-344 614,-309C650,-274 668,-237 668,-196C668,-155 658,-118 637,-85C605,-35 547,22 463,85C338,178 252,261 207,332C173,386 156,443 156,504C156,565 174,626 210,686C246,745 302,798 377,843M409,812C308,751 258,677 258,590C258,543 270,500 295,461C330,407 395,343 492,270C539,235 579,201 614,169C716,231 767,304 767,389C767,432 752,478 723,525C694,572 633,631 542,702C487,744 443,781 409,812z" unicode="§"></glyph><glyph d="M363,928C432,928 492,904 541,855C590,806 614,746 614,677C614,608 590,549 541,500C492,451 432,426 363,426C294,426 235,451 186,500C137,549 112,608 112,677C112,746 136,806 185,855C234,904 293,928 363,928z" unicode="•"></glyph><glyph d="M798,1301l0,-1743l-72,0l0,1743l-187,0l0,-1743l-73,0l0,1043C339,606 244,623 181,652C118,680 69,724 36,783C3,842 -14,908 -14,981C-14,1054 0,1114 29,1161C68,1225 119,1274 184,1307C248,1340 332,1356 436,1356l495,0l0,-55z" unicode="¶"></glyph><glyph d="M35,0l0,36C75,39 104,46 121,57C138,68 150,83 157,102C164,121 167,162 167,225l0,741C167,1132 198,1250 260,1319C322,1388 410,1422 524,1422C632,1422 718,1392 781,1331C844,1270 876,1192 876,1097C876,1026 858,966 822,917C795,881 750,849 685,821C775,794 843,748 889,682C935,616 958,529 958,422C958,306 928,205 867,118C806,31 725,-13 623,-13C565,-13 519,3 484,35C449,67 431,105 431,149C431,177 438,199 453,214C467,229 486,236 510,236C536,236 556,229 571,215C585,200 592,181 592,157C592,146 591,135 588,124C584,108 582,96 582,89C582,77 587,66 597,57C607,48 621,43 638,43C678,43 711,61 737,96C771,143 788,215 788,312C788,451 764,561 715,642C666,723 592,767 493,774l0,57C564,831 617,852 654,894C690,935 708,1005 708,1102C708,1191 691,1256 656,1296C621,1336 574,1356 516,1356C462,1356 418,1335 384,1292C350,1249 333,1164 333,1037l0,-1037z" unicode="ß"></glyph><glyph d="M778,1387C897,1387 1014,1357 1127,1296C1240,1235 1329,1147 1393,1034C1456,920 1488,801 1488,678C1488,555 1457,438 1394,325C1331,212 1244,125 1131,63C1018,0 901,-31 778,-31C655,-31 538,0 426,63C313,125 226,212 163,325C100,438 69,555 69,678C69,801 101,920 165,1034C228,1147 317,1235 430,1296C543,1357 659,1387 778,1387M778,1326C669,1326 563,1298 460,1242C357,1186 276,1106 218,1003C160,899 131,791 131,678C131,566 160,459 217,356C274,253 353,173 456,116C559,59 666,30 778,30C890,30 998,59 1101,116C1204,173 1284,253 1341,356C1398,459 1426,566 1426,678C1426,791 1397,899 1339,1003C1281,1106 1200,1186 1097,1242C994,1298 887,1326 778,1326M386,1114l386,0C869,1114 942,1092 993,1049C1044,1005 1069,952 1069,890C1069,839 1052,795 1018,757C983,718 926,689 847,668l209,-298C1081,335 1104,310 1124,297C1137,289 1154,284 1177,282l0,-33l-184,0l-294,405l-76,0l0,-309C627,323 637,307 652,297C667,287 696,282 741,282l0,-33l-367,0l0,33C406,282 429,286 442,294C455,301 465,312 471,327C476,338 478,369 478,420l0,523C478,992 477,1021 475,1030C470,1045 462,1057 450,1066C437,1074 416,1078 386,1078M623,697C702,697 759,705 796,720C832,735 860,757 879,785C898,812 908,844 908,879C908,933 889,978 852,1015C814,1052 766,1070 707,1070C682,1070 654,1065 623,1054z" unicode="®"></glyph><glyph d="M778,1387C897,1387 1014,1357 1127,1296C1240,1235 1329,1147 1393,1034C1456,920 1488,801 1488,678C1488,555 1457,438 1394,325C1331,212 1244,125 1131,63C1018,0 901,-31 778,-31C655,-31 538,0 426,63C313,125 226,212 163,325C100,438 69,555 69,678C69,801 101,920 165,1034C228,1147 317,1235 430,1296C543,1357 659,1387 778,1387M778,1326C669,1326 563,1298 460,1242C357,1186 276,1106 218,1003C160,899 131,791 131,678C131,566 160,459 217,356C274,253 353,173 456,116C559,59 666,30 778,30C890,30 998,59 1101,116C1204,173 1284,253 1341,356C1398,459 1426,566 1426,678C1426,791 1397,899 1339,1003C1281,1106 1200,1186 1097,1242C994,1298 887,1326 778,1326M1129,1134l20,-280l-39,0C1086,933 1048,993 996,1032C943,1071 880,1090 807,1090C752,1090 704,1079 661,1056C618,1033 583,1003 556,965C536,936 519,898 506,851C493,804 486,754 486,701C486,560 516,456 577,389C638,322 718,288 817,288C947,288 1051,342 1129,450l37,-19C1073,296 946,228 783,228C650,228 539,271 452,358C364,444 320,549 320,672C320,800 367,909 460,1000C553,1090 673,1135 818,1135C849,1135 874,1133 895,1129C915,1125 951,1114 1003,1097C1020,1092 1032,1089 1040,1089C1051,1089 1060,1092 1067,1098C1074,1103 1082,1115 1089,1134z" unicode="©"></glyph><glyph d="M51,1356l728,0l22,-201l-34,0C760,1203 743,1239 715,1262C686,1285 639,1296 573,1296l-75,0l0,-579C498,661 505,626 518,611C531,596 560,587 604,585l0,-36l-374,0l0,36C273,589 301,598 313,613C324,627 330,661 330,716l0,580l-76,0C191,1296 146,1286 119,1265C92,1244 74,1207 64,1155l-34,0M1156,1356l273,-572l265,572l279,0l0,-37C1936,1318 1911,1315 1899,1308C1886,1301 1877,1291 1871,1276C1865,1261 1862,1231 1862,1184l0,-468C1862,659 1868,624 1881,610C1894,596 1924,588 1973,585l0,-36l-398,0l0,36C1614,586 1641,590 1655,597C1668,604 1678,615 1685,629C1691,643 1694,672 1694,715l0,492l-307,-658l-32,0l-308,649l0,-482C1047,671 1050,641 1056,628C1061,614 1070,603 1083,596C1095,589 1114,585 1140,585l36,0l0,-36l-306,0l0,36C907,585 933,588 946,595C959,602 968,612 974,626C980,640 983,670 983,716l0,466C983,1233 980,1265 975,1278C969,1291 959,1302 946,1309C933,1316 907,1319 870,1319l0,37z" unicode="™"></glyph><glyph d="M565,1390l-295,-345l-34,0l105,345z" unicode="´"></glyph><glyph d="M518,1337C548,1337 574,1326 595,1305C616,1284 626,1258 626,1228C626,1198 616,1173 595,1152C574,1131 548,1120 518,1120C488,1120 462,1131 441,1152C420,1173 409,1198 409,1228C409,1258 420,1284 441,1305C462,1326 488,1337 518,1337M165,1337C196,1337 222,1326 243,1305C264,1284 274,1258 274,1228C274,1198 263,1173 242,1152C221,1131 195,1120 166,1120C136,1120 110,1131 89,1152C68,1173 57,1198 57,1228C57,1258 68,1284 89,1305C110,1326 135,1337 165,1337z" unicode="¨"></glyph><glyph d="M25,818l602,0l210,533l80,0l-206,-533l388,0l0,-94l-425,0l-144,-370l569,0l0,-93l-605,0l-211,-531l-80,0l209,531l-387,0l0,93l423,0l145,370l-568,0z" unicode="≠"></glyph><glyph d="M1027,1282l0,-536l257,0C1361,746 1415,760 1446,789C1477,818 1496,869 1501,943l36,0l0,-471l-36,0C1493,539 1482,584 1469,607C1455,630 1432,648 1400,662C1385,669 1346,673 1284,673l-257,0l0,-449C1027,163 1029,127 1034,116C1039,104 1048,94 1063,86C1078,78 1104,74 1142,74l182,0C1397,74 1453,80 1492,92C1531,104 1569,127 1606,162C1655,207 1695,267 1726,341l38,0l-108,-341l-1018,0l0,37l51,0C744,37 785,53 811,86C827,107 835,158 835,239l0,286l-396,0l-124,-233C268,204 245,146 245,119C245,100 255,83 276,68C296,52 338,42 402,37l0,-37l-426,0l0,37C5,38 31,44 52,56C73,68 95,90 120,121C145,152 176,203 214,274l412,771C677,1140 703,1205 703,1238C703,1259 694,1276 676,1288C653,1305 605,1315 530,1319l0,37l1111,0l15,-298l-34,0C1613,1127 1597,1179 1572,1215C1554,1241 1528,1260 1494,1272C1475,1279 1429,1282 1358,1282M835,1282l-357,-684l357,0z" unicode="Æ"></glyph><glyph d="M1147,1238l131,162l58,-44l-133,-167C1272,1114 1323,1037 1354,960C1385,883 1401,792 1401,687C1401,458 1320,273 1157,132C1032,23 894,-31 744,-31C675,-31 603,-18 528,7C452,32 386,67 330,112l-129,-159l-59,47l132,164C140,302 73,478 73,692C73,888 138,1053 269,1187C400,1320 557,1387 741,1387C892,1387 1028,1337 1147,1238M1063,1135C986,1256 877,1316 736,1316C674,1316 625,1309 589,1294C539,1274 494,1242 455,1198C402,1139 364,1068 339,983C314,898 302,803 302,697C302,543 326,407 375,289M1101,1063l-685,-846C452,162 491,122 532,97C591,60 657,41 730,41C800,41 857,52 902,73C947,94 989,126 1028,170C1067,214 1100,276 1128,356C1156,436 1170,536 1170,656C1170,738 1164,814 1152,884C1143,935 1126,995 1101,1063z" unicode="Ø"></glyph><glyph d="M653,667C698,771 748,843 802,884C856,924 930,944 1023,944C1130,944 1221,905 1295,828C1369,751 1406,650 1406,527C1406,405 1370,305 1298,226C1226,147 1146,107 1057,107C991,107 930,131 873,180C836,212 785,283 720,393C677,310 631,251 580,215C529,178 468,160 396,160C300,160 219,194 153,263C86,332 53,420 53,529C53,639 84,728 145,795C206,862 278,896 360,896C417,896 468,881 512,852C556,822 603,760 653,667M749,464C799,360 848,290 897,255C946,219 1000,201 1061,201C1143,201 1212,231 1267,290C1322,349 1349,428 1349,527C1349,625 1320,706 1262,770C1204,834 1139,866 1067,866C1021,866 981,854 947,831C912,808 881,770 853,719C837,689 802,604 749,464M624,590C591,663 554,717 512,752C470,787 418,804 357,804C286,804 227,779 180,730C132,680 108,613 108,530C108,441 132,371 179,318C226,265 279,238 338,238C401,238 457,266 506,323C537,360 577,449 624,590z" unicode="∞"></glyph><glyph d="M8,141l0,81l498,0l0,418l-498,0l0,82l498,0l0,497l80,0l0,-497l500,0l0,-82l-500,0l0,-418l501,0l0,-81z" unicode="±"></glyph><glyph d="M1098,246l-1073,456l0,83l1073,454l0,-102l-950,-393l950,-396M24,-70l1076,0l0,-93l-1076,0z" unicode="≤"></glyph><glyph d="M25,1239l1073,-456l0,-83l-1073,-454l0,102l950,393l-950,396M24,-70l1076,0l0,-93l-1076,0z" unicode="≥"></glyph><glyph d="M597,425l426,0l0,-73l-426,0l0,-108C597,169 601,122 608,101C614,86 625,74 642,63C667,48 695,41 727,41l41,0l0,-41l-515,0l0,41l32,0C332,41 366,50 389,67C405,80 416,99 422,124C425,137 426,177 426,244l0,108l-424,0l0,73l424,0l0,144l-15,36l-409,0l0,73l377,0l-213,496C141,1232 117,1270 94,1289C70,1308 39,1317 2,1318l0,38l442,0l0,-38C396,1315 364,1307 348,1295C331,1283 323,1270 323,1256C323,1245 329,1226 341,1197l214,-519l213,504C782,1215 789,1240 789,1257C789,1271 782,1285 768,1298C759,1307 737,1312 704,1315C698,1315 689,1316 677,1318l0,38l346,0l0,-38C983,1318 954,1310 936,1295C907,1272 879,1228 850,1163l-214,-485l387,0l0,-73l-419,0l-7,-16z" unicode="¥"></glyph><glyph d="M196,916l164,0l0,-533C360,286 366,220 378,185C387,158 403,137 426,120C449,103 475,95 502,95C581,95 659,140 738,229l0,687l165,0l0,-654C903,195 906,152 911,131C916,115 924,103 935,94C946,85 958,80 971,80C988,80 1003,87 1015,102C1032,123 1045,157 1052,204l42,0C1088,123 1067,65 1031,28C995,-9 950,-28 896,-28C844,-28 804,-9 776,30C756,59 743,103 738,162C680,94 626,45 576,16C526,-13 475,-28 424,-28C389,-28 358,-21 332,-7C313,4 292,25 269,57C268,36 268,21 268,11C268,-42 279,-121 302,-228C311,-269 315,-303 315,-332C315,-364 306,-390 287,-411C268,-432 246,-442 221,-442C196,-442 176,-432 159,-413C142,-394 134,-367 134,-333C134,-302 144,-247 163,-168C176,-115 184,-80 185,-64C193,5 197,64 197,115C197,118 197,143 196,190z" unicode="µ"></glyph><glyph d="M929,717C937,792 941,854 941,903C941,1023 910,1116 847,1182C784,1247 700,1280 595,1280C524,1280 466,1267 419,1240C372,1213 331,1174 294,1121l-46,0C299,1226 355,1303 414,1351C473,1398 545,1422 629,1422C689,1422 748,1406 805,1373C862,1340 908,1288 943,1215C978,1142 995,1044 995,920C995,684 944,472 841,284C726,74 580,-31 403,-31C299,-31 217,-1 156,59C95,119 64,201 64,304C64,382 80,459 111,534C142,609 181,672 228,724C275,776 328,817 386,848C461,888 538,908 616,908C671,908 720,898 765,877C809,856 845,830 874,800C892,781 910,754 929,717M912,628C886,702 847,758 796,796C744,834 687,853 625,853C565,853 506,832 448,791C390,750 340,677 297,574C254,470 233,366 233,263C233,187 251,129 288,88C325,47 371,26 428,26C510,26 594,69 679,156C788,267 865,424 912,628z" unicode="∂"></glyph><glyph d="M1356,-442l-1313,0l0,37l669,901l-669,887l0,37l1278,0l27,-337l-40,0C1297,1175 1272,1241 1231,1280C1190,1319 1132,1339 1059,1339l-740,0l562,-757l-629,-847l818,0C1117,-265 1168,-256 1223,-238C1261,-226 1293,-204 1318,-171C1343,-139 1363,-88 1380,-19l40,-8z" unicode="∑"></glyph><glyph d="M1240,1342l-795,0l0,-1591C445,-304 457,-344 482,-368C507,-392 548,-404 607,-404l36,0l0,-38l-597,0l0,38l35,0C140,-404 182,-392 207,-368C232,-345 244,-305 244,-249l0,1477C244,1283 232,1323 207,1347C182,1371 140,1383 81,1383l-35,0l0,37l1594,0l0,-37l-35,0C1546,1383 1505,1371 1480,1347C1455,1323 1443,1283 1443,1228l0,-1477C1443,-304 1455,-344 1480,-368C1505,-392 1546,-404 1605,-404l35,0l0,-38l-597,0l0,38l35,0C1137,-404 1178,-392 1203,-368C1228,-345 1240,-305 1240,-249z" unicode="∏"></glyph><glyph d="M200,895l18,581C223,1579 240,1664 268,1731C286,1776 311,1809 342,1831C373,1852 404,1863 435,1863C468,1863 498,1852 523,1830C548,1807 560,1783 560,1756C560,1725 551,1700 534,1681C516,1662 494,1652 468,1652C445,1652 419,1664 392,1688C377,1701 363,1708 352,1708C341,1708 331,1703 324,1694C316,1684 312,1667 312,1644C312,1617 315,1568 321,1499C346,1225 358,1004 358,836C358,789 353,593 342,246C337,49 307,-84 252,-153C216,-198 171,-220 118,-220C83,-220 55,-209 33,-186C11,-163 0,-134 0,-99C0,-69 9,-45 26,-27C43,-9 64,0 90,0C117,0 140,-11 159,-32C178,-53 195,-64 208,-64C219,-64 229,-59 236,-50C243,-41 247,-25 247,-3C247,25 244,65 238,117C227,212 218,325 212,455C204,621 200,768 200,895z" unicode="∫"></glyph><glyph d="M340,1180C340,1253 331,1300 314,1323C296,1345 269,1356 234,1356C202,1356 178,1349 163,1335C148,1320 140,1298 140,1267C140,1237 135,1215 124,1202C113,1188 99,1181 82,1181C67,1181 54,1187 43,1198C32,1209 26,1224 26,1241C26,1278 45,1311 83,1340C120,1369 179,1384 260,1384C321,1384 369,1374 402,1353C435,1332 456,1311 465,1289C474,1267 478,1231 478,1180l0,-218C478,927 479,906 480,901C482,892 486,886 491,881C496,877 500,875 504,875C513,875 533,885 562,905l0,-48C513,822 481,801 464,794C447,787 430,783 413,783C396,783 382,790 369,804C356,817 346,842 340,878C298,848 259,825 223,810C187,795 154,787 125,787C90,787 59,800 33,825C7,850 -6,879 -6,911C-6,940 1,966 16,988C36,1019 72,1050 123,1081C158,1102 230,1135 340,1180M340,1142C260,1115 206,1086 177,1054C148,1022 133,990 133,958C133,935 142,915 159,898C176,881 197,872 222,872C237,872 254,876 274,883C293,890 315,901 340,916z" unicode="ª"></glyph><glyph d="M324,1384C407,1384 475,1356 530,1300C584,1243 611,1174 611,1091C611,1008 581,937 522,877C463,817 392,787 311,787C232,787 166,814 111,869C56,923 29,992 29,1075C29,1167 57,1242 112,1299C167,1356 237,1384 324,1384M296,1341C261,1341 232,1326 207,1296C182,1266 170,1218 170,1153C170,1047 193,961 239,895C265,857 299,838 341,838C379,838 411,853 436,883C461,912 473,959 473,1023C473,1128 449,1213 402,1279C373,1320 337,1341 296,1341z" unicode="º"></glyph><glyph d="M645,290l30,-290l-604,0l0,334l34,0C118,281 134,248 152,233C170,218 203,211 251,211l303,0l0,29C449,271 366,311 306,358C246,405 198,469 163,550C128,630 110,711 110,794C110,895 137,993 191,1088C245,1182 324,1255 427,1306C530,1357 650,1382 787,1382C923,1382 1043,1357 1146,1306C1249,1255 1328,1183 1382,1089C1436,994 1463,896 1463,794C1463,711 1445,629 1410,549C1375,469 1327,405 1268,358C1208,311 1125,271 1019,240l0,-29l303,0C1371,211 1404,218 1422,233C1440,248 1456,281 1469,334l34,0l0,-334l-605,0l31,290C1011,320 1073,364 1114,421C1183,518 1218,643 1218,797C1218,968 1180,1096 1103,1183C1026,1270 922,1313 792,1313C655,1313 553,1275 486,1199C399,1102 356,968 356,798C356,701 370,615 397,542C424,468 461,409 509,366C541,337 586,311 645,290z" unicode="Ω"></glyph><glyph d="M734,567C733,533 733,508 733,493C733,359 757,264 805,207C853,150 914,122 989,122C1054,122 1112,142 1165,183C1198,209 1234,262 1272,342l32,-22C1280,212 1228,122 1149,50C1092,-2 1020,-28 934,-28C862,-28 800,-12 749,19C725,34 688,72 638,132C630,126 612,112 583,89C544,58 518,38 505,31C474,13 440,-1 405,-12C370,-23 333,-28 296,-28C233,-28 181,-6 138,39C95,83 73,137 73,201C73,259 88,308 117,349C146,390 202,432 287,475C391,528 483,569 563,597l0,92C563,761 550,812 523,842C496,871 461,886 416,886C372,886 338,875 313,854C288,832 275,808 275,781C275,725 272,689 267,672C261,655 252,643 240,634C228,625 213,621 195,621C169,621 149,629 135,644C115,665 105,689 105,716C105,751 117,785 142,820C166,855 204,884 257,908C309,932 370,944 440,944C523,944 585,932 627,909C669,885 697,856 710,821C742,861 776,890 811,908C858,932 914,944 979,944C1075,944 1153,912 1214,847C1274,782 1304,689 1304,567M734,632l378,0C1111,716 1093,777 1059,816C1024,854 980,873 927,873C874,873 829,852 792,811C755,769 735,709 734,632M610,184C596,214 585,253 576,302C567,350 563,397 563,443l0,89C473,504 390,461 315,404C266,366 241,317 241,258C241,205 257,162 289,129C320,96 358,79 402,79C428,79 456,86 485,100C514,113 555,141 610,184z" unicode="æ"></glyph><glyph d="M806,832l133,147l46,-43l-135,-152C921,694 956,590 956,472C956,393 937,312 898,228C859,143 806,80 738,37C669,-6 592,-28 507,-28C452,-28 403,-19 360,-2C317,15 271,44 221,86l-135,-153l-47,43l141,159C147,176 121,227 102,287C83,347 74,403 74,455C74,534 94,614 135,695C175,776 229,837 297,880C365,922 440,943 521,943C576,943 625,934 670,917C714,900 759,871 806,832M704,719C670,778 637,820 604,843C571,866 532,877 488,877C423,877 368,850 325,797C282,744 260,655 260,532C260,449 273,362 299,270M732,654l-403,-450C363,143 396,101 429,78C462,55 501,43 547,43C613,43 667,70 709,123C750,176 771,269 771,402C771,483 758,567 732,654z" unicode="ø"></glyph><glyph d="M452,975C483,975 509,964 531,943C552,921 563,895 563,864C563,833 552,807 531,786C509,764 483,753 452,753C421,753 395,764 374,786C352,807 341,833 341,864C341,895 352,921 374,943C395,964 421,975 452,975M441,626l39,0C477,543 469,478 456,430C443,381 409,299 354,183C299,67 271,-29 271,-106C271,-194 293,-262 337,-310C381,-358 438,-382 507,-382C565,-382 611,-368 644,-341C677,-314 694,-284 694,-251C694,-230 684,-202 663,-166C642,-131 632,-102 632,-81C632,-58 640,-39 656,-23C672,-8 691,0 713,0C740,0 766,-14 789,-41C812,-69 824,-106 824,-152C824,-229 792,-296 727,-354C662,-413 573,-442 460,-442C347,-442 257,-411 190,-348C123,-286 89,-212 89,-125C89,-70 99,-19 118,27C147,92 197,166 268,249C339,331 385,395 405,440C425,485 437,547 441,626z" unicode="¿"></glyph><glyph d="M342,974C373,974 400,963 421,942C442,920 453,894 453,863C453,832 442,806 421,785C399,764 373,753 342,753C311,753 285,764 264,785C243,806 232,832 232,863C232,894 243,920 264,942C285,963 311,974 342,974M322,587l38,0l89,-810C452,-258 454,-285 454,-302C454,-344 443,-378 421,-403C398,-429 372,-442 341,-442C310,-442 283,-429 261,-404C239,-379 228,-341 228,-290C228,-274 230,-252 233,-223z" unicode="¡"></glyph><glyph d="M36,878l1080,0l0,-406l-79,0l0,325l-1001,0z" unicode="¬"></glyph><glyph d="M1049,1869l74,0l-312,-1947l-496,1021l-198,-91l-34,64l301,151l405,-823z" unicode="√"></glyph><glyph d="M687,875l178,0l-17,-66l-174,0C639,630 582,394 502,101C439,-126 371,-276 297,-348C241,-403 183,-431 124,-431C87,-431 57,-421 35,-400C13,-380 2,-355 2,-326C2,-300 10,-279 26,-262C41,-245 59,-237 79,-237C96,-237 112,-243 125,-255C138,-267 144,-280 144,-293C144,-308 139,-320 130,-331C123,-339 120,-345 120,-350C120,-355 122,-360 127,-364C132,-369 138,-371 145,-371C158,-371 171,-368 182,-361C202,-350 222,-328 241,-297C260,-266 280,-207 301,-120C305,-105 334,33 387,295C392,318 433,490 510,809l-177,0l15,66C414,880 456,885 473,891C490,896 504,907 515,922C532,945 552,989 575,1056C624,1197 670,1288 715,1328C759,1367 808,1387 862,1387C903,1387 937,1376 962,1354C987,1332 999,1306 999,1275C999,1252 992,1233 979,1219C966,1205 950,1198 931,1198C914,1198 899,1204 887,1216C874,1227 868,1240 868,1254C868,1265 872,1276 879,1289C886,1301 890,1310 890,1315C890,1322 887,1329 881,1334C875,1339 866,1341 855,1341C834,1341 814,1333 797,1317C774,1295 758,1267 751,1233C733,1152 712,1033 687,875z" unicode="ƒ"></glyph><glyph d="M1052,1038l43,0C1093,954 1069,888 1023,839C976,790 920,765 853,765C822,765 790,770 755,780C720,790 629,825 480,886C376,929 302,950 259,950C212,950 173,936 141,907C108,878 86,831 73,767l-43,0C33,826 44,876 64,915C83,954 112,984 150,1007C187,1029 225,1040 262,1040C291,1040 320,1036 351,1027C420,1007 517,970 642,917C707,889 759,870 798,859C818,854 840,851 865,851C915,851 957,867 991,899C1025,931 1045,977 1052,1038M1052,547l43,0C1093,462 1069,396 1023,347C976,298 920,273 853,273C822,273 772,283 703,304l-223,91C376,437 302,458 259,458C212,458 173,444 141,415C108,386 86,339 73,275l-43,0C33,334 44,384 63,423C82,462 111,492 149,515C186,538 224,549 261,549C290,549 319,545 350,536C420,515 517,478 642,425C707,397 759,378 798,368C818,363 840,360 865,360C915,360 957,376 991,408C1025,439 1045,486 1052,547z" unicode="≈"></glyph><glyph d="M1226,0l-1200,0l628,1387M990,82l-399,967l-440,-967z" unicode="∆"></glyph><glyph d="M508,-8l-57,0l-387,472l387,470l57,0l-244,-470M960,-8l-58,0l-394,472l394,470l58,0l-243,-470z" unicode="«"></glyph><glyph d="M516,934l57,0l387,-472l-387,-470l-57,0l244,470M64,934l58,0l394,-472l-394,-470l-58,0l243,470z" unicode="»"></glyph><glyph d="M341,194C372,194 399,183 420,162C441,140 452,114 452,83C452,52 441,26 420,5C398,-17 372,-28 341,-28C310,-28 284,-17 263,5C241,26 230,52 230,83C230,114 241,141 263,162C284,183 310,194 341,194M1024,194C1055,194 1081,183 1103,162C1124,140 1135,114 1135,83C1135,52 1124,26 1103,5C1081,-17 1055,-28 1024,-28C993,-28 967,-17 946,5C924,26 913,52 913,83C913,114 924,141 946,162C967,183 993,194 1024,194M1707,194C1738,194 1764,183 1786,162C1807,140 1818,114 1818,83C1818,52 1807,26 1786,5C1764,-17 1738,-28 1707,-28C1676,-28 1650,-17 1629,5C1607,26 1596,52 1596,83C1596,114 1607,141 1628,162C1649,183 1676,194 1707,194z" unicode="…"></glyph><glyph d="M937,454l-525,0l-92,-214C297,187 286,148 286,122C286,101 296,83 316,68C335,52 378,42 443,37l0,-37l-427,0l0,37C73,47 109,60 126,76C160,108 198,173 239,271l477,1116l35,0l472,-1128C1261,168 1296,110 1327,83C1358,56 1401,40 1456,37l0,-37l-535,0l0,37C975,40 1012,49 1031,64C1050,79 1059,98 1059,120C1059,149 1046,196 1019,259M909,528l-230,548l-236,-548M513,1797l223,0l106,-345l-35,0z" unicode="À"></glyph><glyph d="M937,454l-525,0l-92,-214C297,187 286,148 286,122C286,101 296,83 316,68C335,52 378,42 443,37l0,-37l-427,0l0,37C73,47 109,60 126,76C160,108 198,173 239,271l477,1116l35,0l472,-1128C1261,168 1296,110 1327,83C1358,56 1401,40 1456,37l0,-37l-535,0l0,37C975,40 1012,49 1031,64C1050,79 1059,98 1059,120C1059,149 1046,196 1019,259M909,528l-230,548l-236,-548M449,1465l-32,0C420,1556 439,1622 474,1663C509,1704 553,1724 605,1724C632,1724 657,1720 680,1711C710,1700 753,1676 808,1640C863,1603 903,1585 930,1585C951,1585 970,1594 987,1612C1003,1630 1016,1667 1025,1724l31,0C1057,1662 1049,1613 1032,1577C1015,1540 991,1512 960,1492C929,1471 897,1461 866,1461C813,1461 748,1488 670,1541C628,1570 600,1587 585,1593C570,1599 556,1602 542,1602C515,1602 493,1590 477,1566C470,1555 460,1521 449,1465z" unicode="Ã"></glyph><glyph d="M749,1387C925,1387 1078,1320 1207,1187C1336,1053 1400,886 1400,686C1400,480 1335,309 1205,173C1075,37 918,-31 733,-31C546,-31 390,35 263,168C136,301 72,472 72,683C72,898 145,1074 292,1210C419,1328 572,1387 749,1387M730,1314C609,1314 511,1269 438,1179C347,1067 301,903 301,687C301,466 348,295 443,176C516,85 612,40 731,40C858,40 964,90 1047,189C1130,288 1171,445 1171,659C1171,891 1125,1064 1034,1178C961,1269 859,1314 730,1314M446,1465l-32,0C417,1556 436,1622 471,1663C506,1704 550,1724 602,1724C629,1724 654,1720 677,1711C707,1700 750,1676 805,1640C860,1603 900,1585 927,1585C948,1585 967,1594 984,1612C1000,1630 1013,1667 1022,1724l31,0C1054,1662 1046,1613 1029,1577C1012,1540 988,1512 957,1492C926,1471 894,1461 863,1461C810,1461 745,1488 667,1541C625,1570 597,1587 582,1593C567,1599 553,1602 539,1602C512,1602 490,1590 474,1566C467,1555 457,1521 446,1465z" unicode="Õ"></glyph><glyph d="M1104,1282l0,-535l183,0C1364,747 1418,763 1450,795C1482,826 1498,876 1497,943l39,0l0,-472l-39,0C1491,553 1474,607 1446,634C1418,660 1365,673 1287,673l-183,0l0,-448C1104,172 1107,137 1114,121C1121,105 1132,93 1147,84C1157,79 1183,76 1224,76l104,0C1408,76 1464,80 1496,89C1527,98 1560,117 1594,148C1644,193 1687,257 1723,340l40,0l-108,-340l-485,0C1076,0 1019,0 999,-1C991,-1 935,-4 832,-10C760,-14 712,-16 687,-16C574,-16 472,13 379,70C286,127 212,210 157,320C102,429 75,548 75,676C75,848 122,1000 216,1131C329,1289 493,1368 709,1368C724,1368 789,1366 903,1361C996,1358 1085,1356 1170,1356l473,0l12,-298l-32,0C1607,1137 1593,1186 1580,1207C1563,1234 1538,1254 1503,1269C1481,1278 1433,1282 1360,1282M912,1042C912,1129 906,1186 894,1214C881,1241 863,1262 840,1275C807,1294 764,1304 713,1304C630,1304 558,1280 495,1231C432,1182 384,1108 353,1008C321,907 305,794 305,668C305,565 319,464 347,367C375,270 420,193 483,138C545,83 620,55 709,55C760,55 800,64 831,81C862,98 883,121 895,152C906,183 912,245 912,340z" unicode="Œ"></glyph><glyph d="M863,573C862,556 861,544 861,535C861,472 872,407 895,339C917,271 950,220 994,187C1038,154 1086,137 1139,137C1192,137 1240,154 1281,188C1322,222 1354,278 1378,355l33,-17C1387,209 1345,116 1286,59C1226,1 1154,-28 1071,-28C1006,-28 951,-12 906,19C860,50 825,88 802,133C761,80 714,40 661,13C608,-14 549,-28 484,-28C367,-28 268,15 188,101C107,186 67,300 67,443C67,596 108,717 191,808C273,898 373,943 490,943C561,943 623,928 676,899C729,870 771,832 802,785C841,842 883,882 926,907C969,932 1022,944 1085,944C1183,944 1263,911 1324,845C1385,779 1414,688 1411,573M453,888C429,888 401,879 368,862C335,844 309,814 291,771C266,716 254,638 254,539C254,367 288,232 356,133C397,73 448,43 509,43C568,43 618,68 657,117C696,166 715,253 715,378C715,533 693,657 648,750C603,842 538,888 453,888M863,638l351,0C1215,685 1207,729 1190,772C1178,804 1158,830 1129,849C1100,868 1070,877 1039,877C994,877 955,857 921,817C886,777 867,717 863,638z" unicode="œ"></glyph><glyph d="M1041,453l-1059,0l0,73l1059,0z" unicode="–"></glyph><glyph d="M2066,453l-2085,0l0,74l2085,0z" unicode="—"></glyph><glyph d="M326,1387l0,-41C267,1315 225,1283 200,1250C175,1217 162,1180 162,1141C162,1118 165,1102 172,1093C178,1084 185,1079 194,1079C203,1079 214,1082 229,1087C244,1092 257,1094 269,1094C296,1094 320,1084 341,1064C361,1043 371,1018 371,989C371,957 359,930 334,907C309,884 279,872 242,872C197,872 157,891 121,930C85,969 67,1016 67,1073C67,1140 89,1202 134,1260C178,1317 242,1360 326,1387M803,1384l0,-38C736,1307 691,1273 670,1242C649,1211 638,1175 638,1134C638,1115 642,1101 649,1092C656,1083 664,1078 672,1078C679,1078 690,1081 705,1086C720,1091 734,1094 749,1094C776,1094 800,1084 821,1065C841,1045 851,1021 851,992C851,959 838,931 813,907C787,883 755,871 718,871C674,871 634,890 599,928C564,966 546,1013 546,1070C546,1140 568,1204 613,1262C658,1319 721,1360 803,1384z" unicode="“"></glyph><glyph d="M115,871l0,42C182,951 227,986 248,1017C269,1048 279,1083 279,1124C279,1143 276,1157 269,1166C262,1175 254,1180 245,1180C238,1180 228,1177 213,1172C198,1167 184,1164 169,1164C141,1164 117,1174 97,1194C77,1214 67,1238 67,1267C67,1299 80,1327 106,1351C131,1375 162,1387 199,1387C243,1387 283,1368 319,1330C354,1292 372,1244 372,1186C372,1116 350,1052 305,994C260,936 196,895 115,871M592,871l0,42C650,943 692,975 718,1009C743,1042 756,1079 756,1118C756,1141 753,1158 746,1167C739,1176 732,1180 724,1180C715,1180 704,1177 689,1172C674,1167 660,1164 649,1164C622,1164 598,1174 578,1195C557,1216 547,1240 547,1269C547,1301 559,1329 584,1352C609,1375 639,1387 675,1387C720,1387 761,1368 797,1329C833,1290 851,1242 851,1185C851,1118 829,1056 785,999C740,941 676,898 592,871z" unicode="”"></glyph><glyph d="M444,1387l0,-43C376,1303 330,1264 305,1229C287,1203 278,1172 278,1137C278,1116 282,1100 290,1090C297,1080 306,1075 316,1075C323,1075 332,1077 344,1082C362,1088 377,1091 388,1091C415,1091 438,1081 459,1061C480,1041 490,1016 490,986C490,952 480,926 459,907C430,882 397,869 359,869C314,869 273,888 238,926C203,964 185,1011 185,1067C185,1146 214,1217 273,1282C312,1325 369,1360 444,1387z" unicode="‘"></glyph><glyph d="M238,869l0,47C307,957 353,995 378,1030C395,1055 404,1086 404,1121C404,1142 400,1157 393,1167C385,1177 376,1182 367,1182C360,1182 350,1180 338,1175C321,1169 306,1166 295,1166C268,1166 245,1176 224,1196C203,1216 193,1241 193,1271C193,1304 203,1330 224,1349C252,1374 285,1387 324,1387C369,1387 409,1368 445,1331C480,1293 498,1246 498,1190C498,1111 468,1040 409,975C370,932 313,897 238,869z" unicode="’"></glyph><glyph d="M562,1075C586,1075 607,1067 624,1050C641,1033 649,1012 649,988C649,964 641,944 624,927C607,910 586,901 561,901C537,901 517,910 500,927C483,944 474,964 474,988C474,1012 483,1033 500,1050C517,1067 537,1075 562,1075M1101,640l-1078,0l0,82l1078,0M562,455C587,455 608,446 625,429C642,412 650,391 650,367C650,343 641,322 624,305C607,288 586,279 562,279C538,279 517,288 500,305C483,322 474,343 474,367C474,391 483,412 500,429C517,446 537,455 562,455z" unicode="÷"></glyph><glyph d="M549,1422l418,-713l-418,-709l-111,0l-391,709l391,713M495,1325l-340,-616l340,-615l359,615z" unicode="◊"></glyph><glyph d="M12,916l427,0l0,-37l-21,0C388,879 366,873 351,860C336,847 328,830 328,811C328,785 339,749 361,703l223,-462l205,506C800,774 806,801 806,828C806,840 804,849 799,855C794,862 785,868 774,873C763,877 743,879 714,879l0,37l298,0l0,-37C987,876 968,871 955,863C942,855 927,840 911,818C905,809 894,783 877,741l-373,-914C468,-262 421,-329 363,-374C304,-419 248,-442 194,-442C155,-442 122,-431 97,-408C72,-385 59,-359 59,-330C59,-302 68,-279 87,-262C105,-245 130,-237 162,-237C184,-237 214,-244 252,-259C279,-269 295,-274 302,-274C322,-274 344,-264 368,-243C391,-222 415,-182 439,-123l65,159l-329,691C165,748 149,773 127,804C110,827 97,843 86,851C71,862 46,871 12,879M725,1337C755,1337 781,1326 802,1305C823,1284 833,1258 833,1228C833,1198 823,1173 802,1152C781,1131 755,1120 725,1120C695,1120 669,1131 648,1152C627,1173 616,1198 616,1228C616,1258 627,1284 648,1305C669,1326 695,1337 725,1337M372,1337C403,1337 429,1326 450,1305C471,1284 481,1258 481,1228C481,1198 470,1173 449,1152C428,1131 402,1120 373,1120C343,1120 317,1131 296,1152C275,1173 264,1198 264,1228C264,1258 275,1284 296,1305C317,1326 342,1337 372,1337z" unicode="ÿ"></glyph><glyph d="M976,1356l473,0l0,-37l-26,0C1406,1319 1380,1311 1347,1296C1314,1281 1283,1259 1256,1230C1229,1201 1195,1155 1155,1090l-327,-515l0,-340C828,152 837,100 856,79C881,51 921,37 976,37l44,0l0,-37l-576,0l0,37l48,0C549,37 590,54 614,89C629,110 636,159 636,235l0,321l-372,568C220,1191 190,1232 175,1249C159,1266 126,1286 77,1309C64,1316 44,1319 19,1319l0,37l580,0l0,-37l-30,0C538,1319 509,1312 483,1297C456,1282 443,1260 443,1231C443,1207 463,1164 504,1101l283,-437l266,418C1093,1145 1113,1191 1113,1222C1113,1241 1108,1257 1099,1272C1089,1287 1075,1298 1057,1307C1039,1315 1012,1319 976,1319M936,1708C966,1708 992,1697 1013,1676C1034,1655 1044,1629 1044,1599C1044,1569 1034,1544 1013,1523C992,1502 966,1491 936,1491C906,1491 880,1502 859,1523C838,1544 827,1569 827,1599C827,1629 838,1655 859,1676C880,1697 906,1708 936,1708M583,1708C614,1708 640,1697 661,1676C682,1655 692,1629 692,1599C692,1569 681,1544 660,1523C639,1502 613,1491 584,1491C554,1491 528,1502 507,1523C486,1544 475,1569 475,1599C475,1629 486,1655 507,1676C528,1697 553,1708 583,1708z" unicode="Ÿ"></glyph><glyph d="M683,1384l-935,-1438l-89,0l935,1438z" unicode="⁄"></glyph><glyph d="M847,737l-574,0C271,709 270,681 270,654l552,0l-23,-78l-527,0C277,435 305,318 356,224C415,115 495,60 596,60C685,60 760,83 820,129C856,156 902,208 957,285l31,-20C931,174 879,110 832,71C755,8 663,-24 556,-24C403,-24 284,40 200,167C131,271 91,407 78,576l-101,0l23,78l74,0l0,16C74,690 75,712 76,737l-99,0l23,78l84,0C107,973 161,1103 246,1206C344,1325 469,1384 622,1384C736,1384 849,1355 962,1296l0,-299l-39,0C906,1211 805,1318 622,1318C517,1318 433,1262 372,1151C325,1064 294,952 279,815l591,0z" unicode="€"></glyph><glyph d="M563,-8l-57,0l-387,472l387,470l57,0l-244,-470z" unicode="‹"></glyph><glyph d="M115,934l58,0l394,-472l-394,-470l-58,0l243,470z" unicode="›"></glyph><glyph d="M367,916l383,0C825,916 873,918 895,922l44,0l0,-710C939,138 948,91 966,70C983,49 1023,37 1085,36l0,-36l-456,0l0,36C694,36 736,50 755,79C768,99 775,143 775,212l0,485C775,759 772,796 765,809C760,819 750,827 735,833C720,838 671,841 590,841l-223,0l0,-596C367,173 371,126 379,105C385,89 397,75 416,64C445,45 471,36 492,36l42,0l0,-36l-500,0l0,36l36,0C117,36 150,49 171,75C192,100 202,157 202,245l0,596l-177,0l0,75l177,0C202,1038 219,1133 253,1202C286,1270 336,1324 402,1363C468,1402 543,1422 626,1422C683,1422 735,1413 782,1394C829,1375 863,1350 886,1321C908,1291 919,1263 919,1237C919,1214 912,1195 897,1180C882,1165 864,1157 843,1157C820,1157 801,1163 785,1175C769,1186 742,1219 704,1273C682,1304 659,1327 634,1341C615,1351 592,1356 564,1356C530,1356 496,1342 463,1315C429,1288 406,1256 393,1221C376,1173 367,1089 367,969z" unicode="ﬁ"></glyph><glyph d="M777,840l-411,0l0,-593C366,175 371,128 381,106C391,83 408,66 431,53C454,40 489,35 536,36l0,-36l-503,0l0,36l40,0C111,36 142,47 165,68C188,89 200,147 200,240l0,600l-177,0l0,76l177,0C205,1050 221,1149 249,1213C277,1276 321,1327 381,1365C441,1403 501,1422 561,1422C629,1422 696,1397 761,1348l141,74l40,0l0,-1210C942,152 946,113 953,95C960,76 973,62 992,52C1011,42 1042,37 1087,36l0,-36l-455,0l0,36C676,37 710,43 733,56C746,63 757,75 765,93C773,111 777,151 777,212M777,916l0,298C756,1189 733,1177 708,1177C677,1177 643,1205 604,1262C565,1318 527,1346 488,1346C465,1346 446,1339 431,1326C406,1306 389,1277 378,1240C370,1212 366,1134 366,1006l0,-90z" unicode="ﬂ"></glyph><glyph d="M530,976C535,932 544,899 556,878C568,857 591,833 624,806C591,757 567,709 552,662C537,615 530,555 530,484C530,417 537,361 551,316C565,270 589,221 624,170C592,143 570,118 558,97C545,75 536,43 530,0C556,4 575,8 587,11C598,14 622,23 658,38C715,61 759,73 792,73C819,73 842,65 859,48C876,31 885,10 885,-15C885,-42 876,-64 859,-81C842,-98 820,-107 793,-107C766,-107 723,-95 666,-70C635,-57 611,-49 592,-44C578,-41 557,-38 530,-37C535,-78 540,-104 543,-117C546,-130 553,-149 564,-173C597,-246 614,-301 614,-337C614,-367 604,-392 585,-412C566,-432 542,-442 513,-442C485,-442 461,-432 442,-411C423,-390 413,-365 413,-334C413,-319 415,-302 420,-284C424,-267 437,-229 459,-170C475,-127 485,-82 490,-37C460,-38 437,-41 420,-45C403,-49 378,-58 345,-73C294,-96 257,-107 232,-107C205,-107 183,-99 166,-82C149,-66 141,-45 141,-19C141,8 150,31 168,48C185,65 208,73 237,73C264,73 301,62 350,41C383,27 408,18 426,14C440,11 461,8 490,7C484,48 475,79 463,100C450,121 427,144 394,170C425,211 447,251 460,290C481,351 491,419 491,496C491,575 480,643 459,701C446,737 425,772 394,806C426,830 448,853 461,875C473,896 483,930 490,976C463,974 443,972 432,969C420,966 391,955 345,937C299,918 260,909 227,909C202,909 181,917 164,934C147,951 139,972 139,997C139,1022 147,1042 164,1059C180,1075 201,1083 226,1083C257,1083 300,1072 357,1049C391,1035 416,1026 433,1022C445,1019 464,1016 490,1014C489,1043 486,1064 482,1077C475,1104 460,1147 437,1206C423,1241 415,1261 414,1266C411,1278 410,1293 410,1311C410,1344 420,1371 439,1392C458,1412 482,1422 511,1422C540,1422 563,1412 581,1393C599,1374 608,1345 608,1307C608,1286 606,1269 603,1256C599,1243 587,1213 567,1166C546,1119 534,1068 530,1014C559,1016 580,1019 593,1022C606,1025 631,1034 669,1050C720,1072 762,1083 795,1083C822,1083 843,1075 860,1059C877,1042 885,1021 885,996C885,970 876,949 859,932C842,915 819,907 791,907C760,907 718,918 665,940C631,955 607,965 594,968C581,971 559,974 530,976z" unicode="‡"></glyph><glyph d="M256,789C287,789 314,778 335,757C356,735 367,709 367,678C367,647 356,621 335,600C313,578 287,567 256,567C225,567 199,578 178,600C156,621 145,647 145,678C145,709 156,735 178,757C199,778 225,789 256,789z" unicode="∙"></glyph><glyph d="M203,-341l0,44C272,-274 325,-239 363,-191C400,-144 419,-93 419,-40C419,-27 416,-17 410,-8C405,-2 401,1 396,1C389,1 373,-6 348,-19C336,-25 323,-28 310,-28C277,-28 251,-18 232,1C213,20 203,47 203,81C203,114 216,142 241,165C266,188 296,200 332,200C376,200 415,181 450,143C484,104 501,53 501,-10C501,-79 477,-142 430,-201C382,-260 306,-307 203,-341z" unicode="‚"></glyph><glyph d="M115,-316l0,42C182,-236 227,-201 248,-170C269,-139 279,-104 279,-63C279,-44 276,-30 269,-21C262,-12 254,-7 245,-7C238,-7 228,-10 213,-15C198,-20 184,-23 169,-23C141,-23 117,-13 97,7C77,27 67,51 67,80C67,112 80,140 106,164C131,188 162,200 199,200C243,200 283,181 319,143C354,105 372,57 372,-1C372,-71 350,-135 305,-193C260,-251 196,-292 115,-316M592,-316l0,42C650,-244 692,-212 718,-178C743,-145 756,-108 756,-69C756,-46 753,-29 746,-20C739,-11 732,-7 724,-7C715,-7 704,-10 689,-15C674,-20 660,-23 649,-23C622,-23 598,-13 578,8C557,29 547,53 547,82C547,114 559,142 584,165C609,188 639,200 675,200C720,200 761,181 797,142C833,103 851,55 851,-2C851,-69 829,-131 785,-188C740,-246 676,-289 592,-316z" unicode="„"></glyph><glyph d="M1220,1387l-972,-1442l-89,0l972,1442M353,1387C404,1387 453,1372 498,1342C543,1312 579,1268 605,1211C630,1154 643,1090 643,1021C643,908 615,820 558,756C501,691 434,659 357,659C308,659 260,674 214,703C167,732 131,775 105,831C78,887 65,951 65,1022C65,1091 78,1155 104,1214C130,1272 166,1315 211,1344C256,1373 303,1387 353,1387M349,1334C329,1334 312,1329 299,1318C277,1299 260,1270 248,1231C233,1180 226,1108 226,1017C226,894 242,808 273,759C295,726 322,709 355,709C386,709 412,726 434,761C467,813 483,903 483,1030C483,1149 467,1233 435,1282C412,1317 383,1334 349,1334M1029,673C1077,673 1124,658 1169,629C1214,599 1250,555 1277,498C1303,441 1316,379 1316,312C1316,239 1303,175 1277,119C1251,63 1215,20 1168,-10C1121,-40 1073,-55 1026,-55C951,-55 884,-22 826,43C767,108 738,196 738,308C738,378 751,442 778,500C805,558 842,601 889,630C936,659 982,673 1029,673M1025,620C1004,620 986,614 971,601C948,582 930,551 917,510C904,468 898,398 898,300C898,180 913,96 944,49C965,16 992,0 1024,0C1057,0 1084,17 1106,50C1139,100 1155,184 1155,303C1155,428 1138,517 1105,569C1084,603 1057,620 1025,620M1691,673C1736,673 1783,659 1832,630C1880,601 1917,559 1943,504C1968,449 1981,387 1981,320C1981,239 1969,172 1945,118C1921,63 1885,21 1838,-9C1790,-40 1742,-55 1693,-55C1644,-55 1597,-40 1552,-10C1506,19 1470,62 1445,117C1419,172 1406,233 1406,301C1406,379 1419,447 1444,504C1469,561 1506,604 1555,632C1604,659 1649,673 1691,673M1691,620C1658,620 1631,604 1611,573C1581,524 1566,435 1566,304C1566,182 1581,97 1612,50C1634,17 1662,0 1695,0C1715,0 1733,6 1748,19C1771,38 1789,70 1802,114C1815,157 1821,229 1821,329C1821,442 1805,522 1774,569C1751,603 1723,620 1691,620z" unicode="‰"></glyph><glyph d="M937,454l-525,0l-92,-214C297,187 286,148 286,122C286,101 296,83 316,68C335,52 378,42 443,37l0,-37l-427,0l0,37C73,47 109,60 126,76C160,108 198,173 239,271l477,1116l35,0l472,-1128C1261,168 1296,110 1327,83C1358,56 1401,40 1456,37l0,-37l-535,0l0,37C975,40 1012,49 1031,64C1050,79 1059,98 1059,120C1059,149 1046,196 1019,259M909,528l-230,548l-236,-548M643,1793l184,0l190,-331l-31,0l-273,213l-229,-213l-30,0z" unicode="Â"></glyph><glyph d="M428,1282l0,-536l298,0C803,746 855,758 881,781C916,812 935,866 939,943l37,0l0,-472l-37,0C930,537 920,579 911,598C899,621 879,640 852,653C825,666 783,673 726,673l-298,0l0,-447C428,166 431,130 436,117C441,104 451,93 464,86C477,78 503,74 540,74l230,0C847,74 902,79 937,90C972,101 1005,122 1037,153C1078,194 1121,257 1164,340l40,0l-117,-340l-1045,0l0,37l48,0C122,37 152,45 181,60C202,71 217,87 225,108C232,129 236,173 236,239l0,881C236,1206 227,1259 210,1279C186,1306 146,1319 90,1319l-48,0l0,37l1045,0l15,-297l-39,0C1049,1130 1034,1179 1017,1206C1000,1233 974,1253 941,1267C914,1277 867,1282 800,1282M537,1793l184,0l190,-331l-31,0l-273,213l-229,-213l-30,0z" unicode="Ê"></glyph><glyph d="M937,454l-525,0l-92,-214C297,187 286,148 286,122C286,101 296,83 316,68C335,52 378,42 443,37l0,-37l-427,0l0,37C73,47 109,60 126,76C160,108 198,173 239,271l477,1116l35,0l472,-1128C1261,168 1296,110 1327,83C1358,56 1401,40 1456,37l0,-37l-535,0l0,37C975,40 1012,49 1031,64C1050,79 1059,98 1059,120C1059,149 1046,196 1019,259M909,528l-230,548l-236,-548M959,1797l-295,-345l-34,0l105,345z" unicode="Á"></glyph><glyph d="M428,1282l0,-536l298,0C803,746 855,758 881,781C916,812 935,866 939,943l37,0l0,-472l-37,0C930,537 920,579 911,598C899,621 879,640 852,653C825,666 783,673 726,673l-298,0l0,-447C428,166 431,130 436,117C441,104 451,93 464,86C477,78 503,74 540,74l230,0C847,74 902,79 937,90C972,101 1005,122 1037,153C1078,194 1121,257 1164,340l40,0l-117,-340l-1045,0l0,37l48,0C122,37 152,45 181,60C202,71 217,87 225,108C232,129 236,173 236,239l0,881C236,1206 227,1259 210,1279C186,1306 146,1319 90,1319l-48,0l0,37l1045,0l15,-297l-39,0C1049,1130 1034,1179 1017,1206C1000,1233 974,1253 941,1267C914,1277 867,1282 800,1282M805,1708C835,1708 861,1697 882,1676C903,1655 913,1629 913,1599C913,1569 903,1544 882,1523C861,1502 835,1491 805,1491C775,1491 749,1502 728,1523C707,1544 696,1569 696,1599C696,1629 707,1655 728,1676C749,1697 775,1708 805,1708M452,1708C483,1708 509,1697 530,1676C551,1655 561,1629 561,1599C561,1569 550,1544 529,1523C508,1502 482,1491 453,1491C423,1491 397,1502 376,1523C355,1544 344,1569 344,1599C344,1629 355,1655 376,1676C397,1697 422,1708 452,1708z" unicode="Ë"></glyph><glyph d="M428,1282l0,-536l298,0C803,746 855,758 881,781C916,812 935,866 939,943l37,0l0,-472l-37,0C930,537 920,579 911,598C899,621 879,640 852,653C825,666 783,673 726,673l-298,0l0,-447C428,166 431,130 436,117C441,104 451,93 464,86C477,78 503,74 540,74l230,0C847,74 902,79 937,90C972,101 1005,122 1037,153C1078,194 1121,257 1164,340l40,0l-117,-340l-1045,0l0,37l48,0C122,37 152,45 181,60C202,71 217,87 225,108C232,129 236,173 236,239l0,881C236,1206 227,1259 210,1279C186,1306 146,1319 90,1319l-48,0l0,37l1045,0l15,-297l-39,0C1049,1130 1034,1179 1017,1206C1000,1233 974,1253 941,1267C914,1277 867,1282 800,1282M406,1797l223,0l106,-345l-35,0z" unicode="È"></glyph><glyph d="M632,37l0,-37l-581,0l0,37l48,0C155,37 196,53 221,86C237,107 245,159 245,240l0,876C245,1185 241,1230 232,1252C225,1269 212,1283 191,1295C162,1311 131,1319 99,1319l-48,0l0,37l581,0l0,-37l-49,0C528,1319 487,1303 462,1270C445,1249 437,1197 437,1116l0,-876C437,171 441,126 450,104C457,87 471,73 492,61C521,45 551,37 583,37M565,1797l-295,-345l-34,0l105,345z" unicode="Í"></glyph><glyph d="M632,37l0,-37l-581,0l0,37l48,0C155,37 196,53 221,86C237,107 245,159 245,240l0,876C245,1185 241,1230 232,1252C225,1269 212,1283 191,1295C162,1311 131,1319 99,1319l-48,0l0,37l581,0l0,-37l-49,0C528,1319 487,1303 462,1270C445,1249 437,1197 437,1116l0,-876C437,171 441,126 450,104C457,87 471,73 492,61C521,45 551,37 583,37M249,1793l184,0l190,-331l-31,0l-273,213l-229,-213l-30,0z" unicode="Î"></glyph><glyph d="M632,37l0,-37l-581,0l0,37l48,0C155,37 196,53 221,86C237,107 245,159 245,240l0,876C245,1185 241,1230 232,1252C225,1269 212,1283 191,1295C162,1311 131,1319 99,1319l-48,0l0,37l581,0l0,-37l-49,0C528,1319 487,1303 462,1270C445,1249 437,1197 437,1116l0,-876C437,171 441,126 450,104C457,87 471,73 492,61C521,45 551,37 583,37M517,1708C547,1708 573,1697 594,1676C615,1655 625,1629 625,1599C625,1569 615,1544 594,1523C573,1502 547,1491 517,1491C487,1491 461,1502 440,1523C419,1544 408,1569 408,1599C408,1629 419,1655 440,1676C461,1697 487,1708 517,1708M164,1708C195,1708 221,1697 242,1676C263,1655 273,1629 273,1599C273,1569 262,1544 241,1523C220,1502 194,1491 165,1491C135,1491 109,1502 88,1523C67,1544 56,1569 56,1599C56,1629 67,1655 88,1676C109,1697 134,1708 164,1708z" unicode="Ï"></glyph><glyph d="M632,37l0,-37l-581,0l0,37l48,0C155,37 196,53 221,86C237,107 245,159 245,240l0,876C245,1185 241,1230 232,1252C225,1269 212,1283 191,1295C162,1311 131,1319 99,1319l-48,0l0,37l581,0l0,-37l-49,0C528,1319 487,1303 462,1270C445,1249 437,1197 437,1116l0,-876C437,171 441,126 450,104C457,87 471,73 492,61C521,45 551,37 583,37M119,1797l223,0l106,-345l-35,0z" unicode="Ì"></glyph><glyph d="M749,1387C925,1387 1078,1320 1207,1187C1336,1053 1400,886 1400,686C1400,480 1335,309 1205,173C1075,37 918,-31 733,-31C546,-31 390,35 263,168C136,301 72,472 72,683C72,898 145,1074 292,1210C419,1328 572,1387 749,1387M730,1314C609,1314 511,1269 438,1179C347,1067 301,903 301,687C301,466 348,295 443,176C516,85 612,40 731,40C858,40 964,90 1047,189C1130,288 1171,445 1171,659C1171,891 1125,1064 1034,1178C961,1269 859,1314 730,1314M957,1797l-295,-345l-34,0l105,345z" unicode="Ó"></glyph><glyph d="M749,1387C925,1387 1078,1320 1207,1187C1336,1053 1400,886 1400,686C1400,480 1335,309 1205,173C1075,37 918,-31 733,-31C546,-31 390,35 263,168C136,301 72,472 72,683C72,898 145,1074 292,1210C419,1328 572,1387 749,1387M730,1314C609,1314 511,1269 438,1179C347,1067 301,903 301,687C301,466 348,295 443,176C516,85 612,40 731,40C858,40 964,90 1047,189C1130,288 1171,445 1171,659C1171,891 1125,1064 1034,1178C961,1269 859,1314 730,1314M641,1793l184,0l190,-331l-31,0l-273,213l-229,-213l-30,0z" unicode="Ô"></glyph><glyph d="M749,1387C925,1387 1078,1320 1207,1187C1336,1053 1400,886 1400,686C1400,480 1335,309 1205,173C1075,37 918,-31 733,-31C546,-31 390,35 263,168C136,301 72,472 72,683C72,898 145,1074 292,1210C419,1328 572,1387 749,1387M730,1314C609,1314 511,1269 438,1179C347,1067 301,903 301,687C301,466 348,295 443,176C516,85 612,40 731,40C858,40 964,90 1047,189C1130,288 1171,445 1171,659C1171,891 1125,1064 1034,1178C961,1269 859,1314 730,1314M511,1797l223,0l106,-345l-35,0z" unicode="Ò"></glyph><glyph d="M977,1319l0,37l480,0l0,-37l-51,0C1353,1319 1312,1297 1283,1252C1269,1231 1262,1183 1262,1108l0,-550C1262,422 1249,317 1222,242C1195,167 1142,102 1063,49C984,-5 876,-32 740,-32C592,-32 480,-6 403,45C326,96 272,165 240,252C219,311 208,423 208,586l0,530C208,1199 197,1254 174,1280C151,1306 113,1319 62,1319l-51,0l0,37l586,0l0,-37l-52,0C489,1319 449,1301 425,1266C408,1242 400,1192 400,1116l0,-591C400,472 405,412 415,344C424,276 442,223 467,185C492,147 529,116 577,91C624,66 683,54 752,54C841,54 920,73 990,112C1060,151 1108,200 1134,261C1159,321 1172,423 1172,567l0,549C1172,1201 1163,1254 1144,1275C1118,1304 1079,1319 1028,1319M960,1797l-295,-345l-34,0l105,345z" unicode="Ú"></glyph><glyph d="M977,1319l0,37l480,0l0,-37l-51,0C1353,1319 1312,1297 1283,1252C1269,1231 1262,1183 1262,1108l0,-550C1262,422 1249,317 1222,242C1195,167 1142,102 1063,49C984,-5 876,-32 740,-32C592,-32 480,-6 403,45C326,96 272,165 240,252C219,311 208,423 208,586l0,530C208,1199 197,1254 174,1280C151,1306 113,1319 62,1319l-51,0l0,37l586,0l0,-37l-52,0C489,1319 449,1301 425,1266C408,1242 400,1192 400,1116l0,-591C400,472 405,412 415,344C424,276 442,223 467,185C492,147 529,116 577,91C624,66 683,54 752,54C841,54 920,73 990,112C1060,151 1108,200 1134,261C1159,321 1172,423 1172,567l0,549C1172,1201 1163,1254 1144,1275C1118,1304 1079,1319 1028,1319M691,1793l184,0l190,-331l-31,0l-273,213l-229,-213l-30,0z" unicode="Û"></glyph><glyph d="M977,1319l0,37l480,0l0,-37l-51,0C1353,1319 1312,1297 1283,1252C1269,1231 1262,1183 1262,1108l0,-550C1262,422 1249,317 1222,242C1195,167 1142,102 1063,49C984,-5 876,-32 740,-32C592,-32 480,-6 403,45C326,96 272,165 240,252C219,311 208,423 208,586l0,530C208,1199 197,1254 174,1280C151,1306 113,1319 62,1319l-51,0l0,37l586,0l0,-37l-52,0C489,1319 449,1301 425,1266C408,1242 400,1192 400,1116l0,-591C400,472 405,412 415,344C424,276 442,223 467,185C492,147 529,116 577,91C624,66 683,54 752,54C841,54 920,73 990,112C1060,151 1108,200 1134,261C1159,321 1172,423 1172,567l0,549C1172,1201 1163,1254 1144,1275C1118,1304 1079,1319 1028,1319M562,1797l223,0l106,-345l-35,0z" unicode="Ù"></glyph><glyph d="M379,943l0,-736C379,150 383,112 392,93C401,74 413,59 430,50C446,41 476,36 519,36l0,-36l-445,0l0,36C119,36 149,40 164,49C179,58 192,72 201,92C210,112 214,150 214,207l0,353C214,659 211,724 205,753C200,774 193,789 183,798C173,806 159,810 142,810C123,810 101,805 74,795l-14,36l276,112z" unicode="ı"></glyph><glyph d="M249,1385l184,0l190,-331l-31,0l-273,213l-229,-213l-30,0z" unicode="ˆ"></glyph><glyph d="M54,1097l-32,0C25,1188 44,1254 79,1295C114,1336 158,1356 210,1356C237,1356 262,1352 285,1343C315,1332 358,1308 413,1272C468,1235 508,1217 535,1217C556,1217 575,1226 592,1244C608,1262 621,1299 630,1356l31,0C662,1294 654,1245 637,1209C620,1172 596,1144 565,1124C534,1103 502,1093 471,1093C418,1093 353,1120 275,1173C233,1202 205,1219 190,1225C175,1231 161,1234 147,1234C120,1234 98,1222 82,1198C75,1187 65,1153 54,1097z" unicode="˜"></glyph><glyph d="M23,1353l638,0l0,-128l-638,0z" unicode="ˉ"></glyph><glyph d="M55,1358l31,0C108,1317 133,1289 162,1272C210,1243 270,1229 343,1229C416,1229 476,1243 523,1271C557,1290 581,1319 594,1358l33,0C621,1275 591,1208 536,1156C481,1104 416,1078 341,1078C267,1078 203,1104 148,1156C93,1207 62,1275 55,1358z" unicode="˘"></glyph><glyph d="M342,1337C372,1337 398,1326 419,1305C440,1284 451,1258 451,1228C451,1198 440,1172 419,1151C398,1130 372,1119 342,1119C312,1119 286,1130 265,1151C244,1172 233,1198 233,1228C233,1258 244,1284 265,1305C286,1326 311,1337 342,1337z" unicode="˙"></glyph><glyph d="M341,1424C394,1424 440,1405 477,1368C514,1331 533,1286 533,1233C533,1180 514,1134 477,1097C440,1060 394,1041 341,1041C288,1041 243,1060 206,1097C169,1134 150,1180 150,1233C150,1286 169,1331 206,1368C243,1405 288,1424 341,1424M341,1355C307,1355 278,1343 255,1320C231,1296 219,1267 219,1233C219,1200 231,1171 255,1147C278,1123 307,1111 341,1111C375,1111 404,1123 428,1147C451,1171 463,1200 463,1233C463,1267 451,1296 428,1320C404,1343 375,1355 341,1355z" unicode="˚"></glyph><glyph d="M361,16l60,0l-50,-79C413,-74 444,-92 465,-117C486,-142 496,-173 496,-209C496,-257 476,-299 436,-335C396,-372 344,-390 281,-390C256,-390 225,-388 187,-383l0,43C206,-343 222,-344 235,-344C269,-344 298,-333 321,-310C344,-288 356,-263 356,-234C356,-214 348,-197 333,-182C318,-167 299,-160 276,-160C269,-160 261,-161 250,-162z" unicode="¸"></glyph><glyph d="M144,1390l187,0l-220,-346l-33,0M457,1390l187,0l-218,-346l-34,0z" unicode="˝"></glyph><glyph d="M327,60C308,40 289,19 270,-2C250,-23 232,-45 216,-68C200,-91 187,-114 176,-138C165,-163 160,-188 159,-214C158,-249 167,-278 186,-301C205,-324 231,-336 264,-336C277,-336 291,-334 307,-329C323,-324 338,-318 351,-310l15,-29C339,-366 312,-387 284,-404C256,-421 224,-429 188,-429C163,-429 141,-425 121,-416C101,-408 84,-397 71,-382C57,-367 47,-350 40,-331C33,-312 29,-292 30,-271C31,-242 38,-214 51,-187C64,-160 80,-134 100,-110C112,-96 124,-83 136,-71C147,-60 160,-48 174,-35C188,-22 204,-9 223,6C242,21 265,39 292,60z" unicode="˛"></glyph><glyph d="M434,1054l-184,0l-190,331l31,0l273,-212l229,212l30,0z" unicode="ˇ"></glyph><glyph d="M1086,0l-1049,0l0,37l42,0C110,37 141,45 171,60C193,71 208,88 217,110C225,131 229,176 229,243l0,299l-207,-166l0,92l207,174l0,470C229,1188 225,1235 218,1253C211,1270 196,1286 173,1299C150,1312 118,1319 79,1319l-42,0l0,37l602,0l0,-37l-60,0C532,1319 497,1312 475,1297C452,1282 437,1259 428,1229C423,1214 421,1175 421,1112l0,-311l227,187l0,-95l-227,-192l0,-453C421,189 425,151 432,136C439,121 453,108 473,99C487,92 525,88 587,88l152,0C836,88 900,93 932,103C978,116 1022,145 1063,189C1104,232 1138,295 1167,376l32,-8z" unicode="Ł"></glyph><glyph d="M380,1422l0,-608l171,141l0,-85l-171,-142l0,-522C380,142 384,102 391,87C398,72 409,60 425,53C450,40 483,35 526,36l0,-36l-462,0l0,36l25,-1C124,35 151,41 172,53C187,62 198,75 205,92C212,109 216,151 216,217l0,379l-186,-153l0,84l186,154l0,355C216,1135 213,1197 207,1222C204,1239 196,1253 183,1264C170,1275 156,1280 141,1280C130,1280 107,1274 74,1263l-10,36l284,123z" unicode="ł"></glyph><glyph d="M939,1387l0,-469l-37,0C890,1008 869,1080 838,1133C807,1186 762,1229 705,1260C648,1291 588,1307 527,1307C458,1307 400,1286 355,1244C310,1201 287,1153 287,1099C287,1058 301,1020 330,986C371,936 470,869 625,786C752,718 838,666 885,630C931,593 967,550 992,501C1017,452 1029,400 1029,346C1029,243 989,155 910,81C830,6 727,-31 602,-31C563,-31 526,-28 491,-22C470,-19 428,-6 363,15C298,36 256,46 239,46C222,46 209,41 200,31C190,21 183,0 178,-31l-37,0l0,465l37,0C195,337 219,264 248,216C277,167 322,127 383,95C443,63 509,47 581,47C664,47 730,69 779,113C827,157 851,209 851,269C851,302 842,336 824,370C805,404 777,436 738,465C712,485 641,528 525,593C409,658 327,709 278,748C229,787 191,829 166,876C141,923 128,974 128,1030C128,1127 165,1211 240,1282C315,1352 410,1387 525,1387C597,1387 673,1369 754,1334C791,1317 818,1309 833,1309C850,1309 865,1314 876,1325C887,1335 895,1356 902,1387M657,1462l-184,0l-190,331l31,0l273,-212l229,212l30,0z" unicode="Š"></glyph><glyph d="M656,943l0,-312l-33,0C598,729 565,796 526,831C486,866 435,884 374,884C327,884 290,872 261,847C232,822 218,795 218,765C218,728 229,696 250,669C271,642 313,613 376,582l146,-71C657,445 725,358 725,250C725,167 694,100 631,49C568,-2 497,-28 419,-28C363,-28 299,-18 227,2C205,9 187,12 173,12C158,12 146,3 137,-14l-33,0l0,327l33,0C156,220 191,149 244,102C297,55 356,31 421,31C467,31 505,45 534,72C563,99 577,131 577,169C577,215 561,254 529,285C496,316 432,356 335,404C238,452 175,495 145,534C115,572 100,620 100,678C100,753 126,816 178,867C229,918 296,943 378,943C414,943 458,935 509,920C543,910 566,905 577,905C588,905 596,907 602,912C608,917 615,927 623,943M491,1054l-184,0l-190,331l31,0l273,-212l229,212l30,0z" unicode="š"></glyph><glyph d="M1178,1356l-891,-1274l556,0C928,82 994,101 1040,138C1085,175 1126,251 1161,365l33,-6l-64,-359l-1104,0l0,37l870,1238l-434,0C390,1275 338,1267 306,1252C273,1236 249,1213 232,1184C215,1154 199,1098 185,1017l-38,0l28,339M734,1462l-184,0l-190,331l31,0l273,-212l229,212l30,0z" unicode="Ž"></glyph><glyph d="M860,281l-11,-281l-808,0l0,36l608,810l-300,0C284,846 242,842 222,834C202,825 186,809 173,786C155,753 145,711 142,662l-40,0l6,254l768,0l0,-37l-614,-812l334,0C666,67 714,73 739,85C764,96 784,117 799,146C810,167 819,212 826,281M563,1054l-184,0l-190,331l31,0l273,-212l229,212l30,0z" unicode="ž"></glyph><glyph d="M244,1422l0,-742l-83,0l0,742M244,300l0,-742l-83,0l0,742z" unicode="¦"></glyph><glyph d="M35,0l0,37l51,0C143,37 184,56 209,93C223,114 230,163 230,240l0,438l-195,0l0,74l195,0l0,364C230,1201 221,1254 202,1275C176,1304 137,1319 86,1319l-51,0l0,37l552,0C797,1356 952,1332 1053,1285C1154,1237 1237,1161 1302,1056C1367,951 1400,828 1400,687C1400,496 1339,333 1217,200C1094,67 902,0 640,0M423,100C508,81 579,72 636,72C790,72 918,126 1020,235C1122,344 1173,491 1173,677C1173,864 1122,1012 1020,1120C918,1228 787,1282 628,1282C568,1282 500,1272 423,1253l0,-501l393,0l0,-74l-393,0z" unicode="Ð"></glyph><glyph d="M469,1169l-247,-135l-30,55l233,132C381,1266 348,1297 326,1316C303,1334 274,1355 237,1379l27,43C344,1382 426,1330 511,1267l249,139l34,-55l-229,-130C692,1111 787,990 852,858C917,725 949,597 949,474C949,381 930,296 892,219C853,141 799,80 730,37C661,-6 584,-28 499,-28C380,-28 278,17 194,106C110,195 68,306 68,441C68,582 114,703 206,806C285,892 379,935 488,935C521,935 550,931 576,922C597,915 624,900 657,876C604,986 541,1084 469,1169M479,874C415,874 361,847 318,793C275,739 253,647 253,518C253,427 267,344 294,268C321,191 357,135 403,98C449,61 497,42 547,42C608,42 659,68 701,121C743,174 764,259 764,377C764,527 738,647 685,738C632,829 564,874 479,874z" unicode="ð"></glyph><glyph d="M976,1356l473,0l0,-37l-26,0C1406,1319 1380,1311 1347,1296C1314,1281 1283,1259 1256,1230C1229,1201 1195,1155 1155,1090l-327,-515l0,-340C828,152 837,100 856,79C881,51 921,37 976,37l44,0l0,-37l-576,0l0,37l48,0C549,37 590,54 614,89C629,110 636,159 636,235l0,321l-372,568C220,1191 190,1232 175,1249C159,1266 126,1286 77,1309C64,1316 44,1319 19,1319l0,37l580,0l0,-37l-30,0C538,1319 509,1312 483,1297C456,1282 443,1260 443,1231C443,1207 463,1164 504,1101l283,-437l266,418C1093,1145 1113,1191 1113,1222C1113,1241 1108,1257 1099,1272C1089,1287 1075,1298 1057,1307C1039,1315 1012,1319 976,1319M996,1797l-295,-345l-34,0l105,345z" unicode="Ý"></glyph><glyph d="M12,916l427,0l0,-37l-21,0C388,879 366,873 351,860C336,847 328,830 328,811C328,785 339,749 361,703l223,-462l205,506C800,774 806,801 806,828C806,840 804,849 799,855C794,862 785,868 774,873C763,877 743,879 714,879l0,37l298,0l0,-37C987,876 968,871 955,863C942,855 927,840 911,818C905,809 894,783 877,741l-373,-914C468,-262 421,-329 363,-374C304,-419 248,-442 194,-442C155,-442 122,-431 97,-408C72,-385 59,-359 59,-330C59,-302 68,-279 87,-262C105,-245 130,-237 162,-237C184,-237 214,-244 252,-259C279,-269 295,-274 302,-274C322,-274 344,-264 368,-243C391,-222 415,-182 439,-123l65,159l-329,691C165,748 149,773 127,804C110,827 97,843 86,851C71,862 46,871 12,879M732,1390l-295,-345l-34,0l105,345z" unicode="ý"></glyph><glyph d="M420,1048l74,0C594,1048 669,1044 718,1036C790,1023 850,1002 898,972C945,941 984,901 1015,850C1045,799 1060,743 1060,680C1060,629 1050,581 1031,538C1012,494 986,456 953,425C920,394 883,369 842,350C801,331 747,318 681,309C657,306 593,304 490,304l-70,0l0,-61C420,157 432,101 455,76C478,50 517,37 573,37l41,0l0,-37l-578,0l0,37l38,0C136,37 180,56 207,93C220,112 227,161 227,240l0,868C227,1184 223,1231 216,1249C209,1266 193,1282 168,1297C143,1312 112,1319 76,1319l-40,0l0,37l578,0l0,-37l-40,0C545,1319 513,1311 480,1296C460,1287 445,1270 435,1247C425,1224 420,1179 420,1113M420,970l0,-595l44,0C545,375 609,384 654,403C714,428 758,465 787,512C816,559 830,614 830,677C830,727 820,773 799,815C778,857 751,890 718,914C684,937 646,953 605,962C578,967 533,970 468,970z" unicode="Þ"></glyph><glyph d="M-2,1308l282,114l38,0l0,-697C365,806 413,862 461,895C508,927 558,943 611,943C703,943 780,907 841,835C916,747 954,632 954,491C954,333 909,202 818,99C743,14 649,-28 536,-28C487,-28 444,-21 408,-7C381,3 351,23 318,53l0,-279C318,-288 322,-327 330,-344C337,-361 351,-374 370,-384C389,-394 423,-399 473,-399l0,-38l-480,0l0,38l25,-1C55,-401 86,-394 112,-379C125,-372 135,-360 142,-343C149,-327 152,-286 152,-220l0,1349C152,1188 149,1226 144,1243C139,1259 130,1271 119,1279C107,1287 91,1291 71,1291C55,1291 35,1286 10,1276M318,666l0,-342C318,250 321,201 327,178C336,139 359,105 396,76C432,47 478,32 533,32C600,32 654,58 695,110C749,178 776,274 776,397C776,537 745,645 684,720C641,772 591,798 532,798C500,798 468,790 437,774C413,762 373,726 318,666z" unicode="þ"></glyph><glyph d="M1115,640l-1078,0l0,82l1078,0z" unicode="−"></glyph><glyph d="M165,328l353,353l-352,352l58,58l352,-352l352,352l56,-57l-352,-352l354,-354l-57,-58l-354,354l-353,-353z" unicode="×"></glyph><glyph d="M136,1297l205,87l35,0l0,-592C376,752 378,727 382,718C385,712 391,707 398,704C409,699 435,696 477,696l0,-32l-325,0l0,32C195,696 221,698 232,703C240,706 246,712 249,719C252,726 254,751 254,792l0,374C254,1213 252,1245 249,1260C247,1271 244,1278 239,1283C234,1287 227,1289 219,1289C206,1289 183,1282 152,1269z" unicode="¹"></glyph><glyph d="M575,816l-61,-152l-494,0l0,29C185,821 294,925 348,1006C381,1055 398,1103 398,1149C398,1190 384,1224 357,1252C329,1279 294,1293 252,1293C214,1293 181,1283 152,1264C123,1244 102,1214 87,1175l-45,0C51,1240 77,1292 120,1329C162,1366 217,1384 284,1384C355,1384 412,1365 457,1326C501,1287 523,1244 523,1196C523,1152 507,1105 475,1055C425,977 327,879 180,760l186,0C424,760 463,764 482,772C501,780 517,795 530,816z" unicode="²"></glyph><glyph d="M55,1229C79,1278 106,1314 136,1337C179,1368 228,1384 285,1384C346,1384 395,1369 430,1338C465,1307 483,1274 483,1237C483,1192 448,1140 378,1082C426,1065 462,1040 487,1008C511,975 523,939 523,900C523,831 495,772 438,723C381,674 298,649 191,649C135,649 95,657 70,673C53,684 44,697 44,712C44,723 50,734 61,743C72,752 86,757 103,757C122,757 149,749 184,733C219,717 250,709 275,709C312,709 344,722 371,749C398,775 411,806 411,841C411,871 402,900 385,927C367,954 344,973 316,984C276,999 240,1007 209,1007l-30,0l0,28C230,1035 274,1051 309,1082C344,1113 361,1149 361,1190C361,1223 350,1249 328,1270C306,1291 277,1301 240,1301C183,1301 134,1272 93,1213z" unicode="³"></glyph><glyph d="M134,1297l205,87l35,0l0,-592C374,752 376,727 380,718C383,712 389,707 396,704C407,699 433,696 475,696l0,-32l-325,0l0,32C193,696 219,698 230,703C238,706 244,712 247,719C250,726 252,751 252,792l0,374C252,1213 250,1245 247,1260C245,1271 242,1278 237,1283C232,1287 225,1289 217,1289C204,1289 181,1282 150,1269M1268,1384l-935,-1438l-89,0l935,1438M1494,113l-61,-153l-494,0l0,30C1104,118 1213,222 1267,303C1300,352 1317,400 1317,446C1317,487 1303,521 1276,549C1248,576 1213,590 1171,590C1133,590 1100,580 1071,561C1042,541 1021,511 1006,472l-45,0C970,537 996,588 1039,625C1081,662 1136,681 1203,681C1274,681 1331,662 1376,623C1420,584 1442,540 1442,493C1442,449 1426,402 1394,351C1344,274 1246,176 1099,57l187,0C1343,57 1382,61 1401,69C1420,76 1436,91 1449,113z" unicode="½"></glyph><glyph d="M134,1297l205,87l35,0l0,-592C374,752 376,727 380,718C383,712 389,707 396,704C407,699 433,696 475,696l0,-32l-325,0l0,32C193,696 219,698 230,703C238,706 244,712 247,719C250,726 252,751 252,792l0,374C252,1213 250,1245 247,1260C245,1271 242,1278 237,1283C232,1287 225,1289 217,1289C204,1289 181,1282 150,1269M1292,1384l-934,-1438l-90,0l935,1438M1501,224l0,-81l-108,0l0,-183l-117,0l0,183l-343,0l0,73l376,465l84,0l0,-457M1276,224l0,316l-260,-316z" unicode="¼"></glyph><glyph d="M1277,1384l-931,-1438l-90,0l935,1438M53,1229C77,1278 104,1314 134,1337C177,1368 226,1384 283,1384C344,1384 393,1369 428,1338C463,1307 481,1274 481,1237C481,1192 446,1140 376,1082C424,1065 460,1040 485,1008C509,975 521,939 521,900C521,831 493,772 436,723C379,674 296,649 189,649C133,649 93,657 68,673C51,684 42,697 42,712C42,723 48,734 59,743C70,752 84,757 101,757C120,757 147,749 182,733C217,717 248,709 273,709C310,709 342,722 369,749C396,775 409,806 409,841C409,889 390,929 353,961C315,993 256,1008 177,1007l0,28C228,1035 272,1051 307,1082C342,1113 359,1149 359,1190C359,1223 348,1249 326,1270C304,1291 275,1301 238,1301C181,1301 132,1272 91,1213M1501,224l0,-81l-108,0l0,-183l-116,0l0,183l-344,0l0,73l376,465l84,0l0,-457M1277,224l0,316l-260,-316z" unicode="¾"></glyph><glyph d="M419,392l274,0l0,-75l-274,0l0,-77C419,171 423,126 432,104C439,87 453,73 474,61C503,45 534,37 566,37l49,0l0,-37l-582,0l0,37l48,0C137,37 178,53 203,86C219,107 227,159 227,240l0,77l-194,0l0,75l194,0l0,724C227,1205 217,1259 197,1278C169,1305 130,1319 81,1319l-48,0l0,37l903,0l12,-298l-34,0C896,1121 876,1168 853,1198C830,1227 801,1249 768,1262C734,1275 682,1282 612,1282l-193,0l0,-533l177,0C653,749 694,762 720,787C746,812 764,861 773,935l36,0l0,-459l-36,0C772,529 766,567 753,592C740,617 721,635 698,648C675,660 641,666 596,666l-177,0z" unicode="₣"></glyph><glyph d="M1257,1387l35,-428l-35,0C1222,1066 1176,1146 1120,1200C1039,1278 936,1317 809,1317C636,1317 505,1249 415,1112C340,997 302,859 302,700C302,571 327,453 377,346C427,239 493,161 574,112C655,62 738,37 823,37C873,37 921,43 968,56C1015,69 1060,87 1103,112l0,392C1103,572 1098,617 1088,638C1077,659 1061,675 1040,686C1018,697 980,702 925,702l0,38l525,0l0,-38l-25,0C1373,702 1337,685 1318,650C1305,625 1298,577 1298,504l0,-415C1221,48 1146,17 1071,-2C996,-21 913,-31 822,-31C560,-31 361,53 225,221C123,347 72,492 72,657C72,776 101,891 158,1000C226,1130 319,1230 438,1300C537,1358 655,1387 790,1387C839,1387 884,1383 925,1375C965,1367 1022,1349 1096,1322C1133,1308 1158,1301 1171,1301C1184,1301 1195,1307 1204,1319C1213,1330 1218,1353 1220,1387M523,1756l31,0C576,1715 601,1687 630,1670C678,1641 738,1627 811,1627C884,1627 944,1641 991,1669C1025,1688 1049,1717 1062,1756l33,0C1089,1673 1059,1606 1004,1554C949,1502 884,1476 809,1476C735,1476 671,1502 616,1554C561,1605 530,1673 523,1756z" unicode="Ğ"></glyph><glyph d="M309,334C253,361 210,400 180,449C150,498 135,552 135,611C135,702 169,780 238,845C306,910 393,943 500,943C587,943 663,922 727,879l194,0C950,879 966,878 971,877C976,875 979,872 981,868C985,862 987,851 987,836C987,819 985,807 982,800C980,797 977,794 972,792C967,790 950,789 921,789l-119,0C839,741 858,680 858,605C858,520 825,447 760,386C695,325 607,295 497,295C452,295 405,302 358,315C329,290 309,268 299,249C288,230 283,213 283,200C283,189 289,178 300,167C311,156 332,149 364,144C383,141 429,139 504,137C641,134 730,129 771,123C833,114 883,91 920,54C957,17 975,-29 975,-84C975,-159 940,-230 869,-296C765,-393 629,-442 462,-442C333,-442 225,-413 136,-355C86,-322 61,-287 61,-251C61,-235 65,-219 72,-203C83,-178 107,-144 142,-100C147,-94 181,-58 244,8C209,29 185,47 171,64C156,80 149,98 149,119C149,142 159,170 178,201C197,232 240,277 309,334M483,895C434,895 392,875 359,836C326,797 309,736 309,655C309,550 332,468 377,410C412,366 456,344 509,344C560,344 601,363 634,401C667,439 683,499 683,580C683,686 660,769 614,829C580,873 536,895 483,895M299,0C268,-34 244,-66 228,-95C212,-124 204,-151 204,-176C204,-208 223,-236 262,-260C329,-301 425,-322 551,-322C671,-322 760,-301 817,-258C874,-216 902,-171 902,-123C902,-88 885,-64 851,-49C816,-34 748,-26 645,-23C495,-19 380,-11 299,0M238,1358l31,0C291,1317 316,1289 345,1272C393,1243 453,1229 526,1229C599,1229 659,1243 706,1271C740,1290 764,1319 777,1358l33,0C804,1275 774,1208 719,1156C664,1104 599,1078 524,1078C450,1078 386,1104 331,1156C276,1207 245,1275 238,1358z" unicode="ğ"></glyph><glyph d="M632,37l0,-37l-581,0l0,37l48,0C155,37 196,53 221,86C237,107 245,159 245,240l0,876C245,1185 241,1230 232,1252C225,1269 212,1283 191,1295C162,1311 131,1319 99,1319l-48,0l0,37l581,0l0,-37l-49,0C528,1319 487,1303 462,1270C445,1249 437,1197 437,1116l0,-876C437,171 441,126 450,104C457,87 471,73 492,61C521,45 551,37 583,37M341,1709C371,1709 397,1698 418,1677C439,1656 450,1630 450,1600C450,1570 439,1544 418,1523C397,1502 371,1491 341,1491C311,1491 285,1502 264,1523C243,1544 232,1570 232,1600C232,1630 243,1656 264,1677C285,1698 310,1709 341,1709z" unicode="İ"></glyph><glyph d="M939,1387l0,-469l-37,0C890,1008 869,1080 838,1133C807,1186 762,1229 705,1260C648,1291 588,1307 527,1307C458,1307 400,1286 355,1244C310,1201 287,1153 287,1099C287,1058 301,1020 330,986C371,936 470,869 625,786C752,718 838,666 885,630C931,593 967,550 992,501C1017,452 1029,400 1029,346C1029,243 989,155 910,81C830,6 727,-31 602,-31C563,-31 526,-28 491,-22C470,-19 428,-6 363,15C298,36 256,46 239,46C222,46 209,41 200,31C190,21 183,0 178,-31l-37,0l0,465l37,0C195,337 219,264 248,216C277,167 322,127 383,95C443,63 509,47 581,47C664,47 730,69 779,113C827,157 851,209 851,269C851,302 842,336 824,370C805,404 777,436 738,465C712,485 641,528 525,593C409,658 327,709 278,748C229,787 191,829 166,876C141,923 128,974 128,1030C128,1127 165,1211 240,1282C315,1352 410,1387 525,1387C597,1387 673,1369 754,1334C791,1317 818,1309 833,1309C850,1309 865,1314 876,1325C887,1335 895,1356 902,1387M556,16l60,0l-50,-79C608,-74 639,-92 660,-117C681,-142 691,-173 691,-209C691,-257 671,-299 631,-335C591,-372 539,-390 476,-390C451,-390 420,-388 382,-383l0,43C401,-343 417,-344 430,-344C464,-344 493,-333 516,-310C539,-288 551,-263 551,-234C551,-214 543,-197 528,-182C513,-167 494,-160 471,-160C464,-160 456,-161 445,-162z" unicode="Ş"></glyph><glyph d="M656,943l0,-312l-33,0C598,729 565,796 526,831C486,866 435,884 374,884C327,884 290,872 261,847C232,822 218,795 218,765C218,728 229,696 250,669C271,642 313,613 376,582l146,-71C657,445 725,358 725,250C725,167 694,100 631,49C568,-2 497,-28 419,-28C363,-28 299,-18 227,2C205,9 187,12 173,12C158,12 146,3 137,-14l-33,0l0,327l33,0C156,220 191,149 244,102C297,55 356,31 421,31C467,31 505,45 534,72C563,99 577,131 577,169C577,215 561,254 529,285C496,316 432,356 335,404C238,452 175,495 145,534C115,572 100,620 100,678C100,753 126,816 178,867C229,918 296,943 378,943C414,943 458,935 509,920C543,910 566,905 577,905C588,905 596,907 602,912C608,917 615,927 623,943M402,16l60,0l-50,-79C454,-74 485,-92 506,-117C527,-142 537,-173 537,-209C537,-257 517,-299 477,-335C437,-372 385,-390 322,-390C297,-390 266,-388 228,-383l0,43C247,-343 263,-344 276,-344C310,-344 339,-333 362,-310C385,-288 397,-263 397,-234C397,-214 389,-197 374,-182C359,-167 340,-160 317,-160C310,-160 302,-161 291,-162z" unicode="ş"></glyph><glyph d="M1233,1387l31,-461l-31,0C1192,1064 1133,1163 1056,1224C979,1285 887,1315 780,1315C690,1315 609,1292 536,1247C463,1201 406,1128 365,1028C323,928 302,804 302,655C302,532 322,426 361,336C400,246 460,177 539,129C618,81 708,57 809,57C897,57 975,76 1042,114C1109,151 1183,226 1264,338l31,-20C1227,197 1148,109 1057,53C966,-3 859,-31 734,-31C509,-31 335,52 212,219C120,343 74,489 74,657C74,792 104,917 165,1030C226,1143 309,1231 416,1294C522,1356 638,1387 764,1387C862,1387 959,1363 1054,1315C1082,1300 1102,1293 1114,1293C1132,1293 1148,1299 1161,1312C1178,1330 1191,1355 1198,1387M977,1797l-295,-345l-34,0l105,345z" unicode="Ć"></glyph><glyph d="M842,348C817,227 769,135 697,70C625,5 545,-28 458,-28C354,-28 263,16 186,103C109,190 70,308 70,457C70,601 113,718 199,808C284,898 387,943 507,943C597,943 671,919 729,872C787,824 816,774 816,723C816,698 808,677 792,662C775,646 752,638 723,638C684,638 654,651 634,676C623,690 615,717 612,756C608,795 594,825 571,846C548,866 515,876 474,876C407,876 354,851 313,802C259,737 232,650 232,543C232,434 259,337 313,254C366,170 439,128 530,128C595,128 654,150 706,195C743,226 778,281 813,362M712,1390l-295,-345l-34,0l105,345z" unicode="ć"></glyph><glyph d="M1233,1387l31,-461l-31,0C1192,1064 1133,1163 1056,1224C979,1285 887,1315 780,1315C690,1315 609,1292 536,1247C463,1201 406,1128 365,1028C323,928 302,804 302,655C302,532 322,426 361,336C400,246 460,177 539,129C618,81 708,57 809,57C897,57 975,76 1042,114C1109,151 1183,226 1264,338l31,-20C1227,197 1148,109 1057,53C966,-3 859,-31 734,-31C509,-31 335,52 212,219C120,343 74,489 74,657C74,792 104,917 165,1030C226,1143 309,1231 416,1294C522,1356 638,1387 764,1387C862,1387 959,1363 1054,1315C1082,1300 1102,1293 1114,1293C1132,1293 1148,1299 1161,1312C1178,1330 1191,1355 1198,1387M850,1462l-184,0l-190,331l31,0l273,-212l229,212l30,0z" unicode="Č"></glyph><glyph d="M842,348C817,227 769,135 697,70C625,5 545,-28 458,-28C354,-28 263,16 186,103C109,190 70,308 70,457C70,601 113,718 199,808C284,898 387,943 507,943C597,943 671,919 729,872C787,824 816,774 816,723C816,698 808,677 792,662C775,646 752,638 723,638C684,638 654,651 634,676C623,690 615,717 612,756C608,795 594,825 571,846C548,866 515,876 474,876C407,876 354,851 313,802C259,737 232,650 232,543C232,434 259,337 313,254C366,170 439,128 530,128C595,128 654,150 706,195C743,226 778,281 813,362M585,1054l-184,0l-190,331l31,0l273,-212l229,212l30,0z" unicode="č"></glyph><glyph d="M681,1068l-291,0l0,82l290,0C677,1214 671,1254 660,1269C649,1284 632,1291 610,1291C593,1291 570,1286 541,1275l-13,35l273,112l45,0l0,-272l153,0l0,-82l-153,0l0,-705C846,256 849,190 854,167C859,143 867,126 878,117C889,108 901,103 916,103C934,103 958,109 988,120l11,-35l-272,-113l-46,0l0,131C636,56 593,23 550,3C507,-18 461,-28 412,-28C312,-28 225,14 150,98C75,181 38,289 38,420C38,551 79,672 162,781C245,890 351,944 481,944C562,944 628,918 681,867M681,173l0,472C677,690 665,732 645,769C625,806 599,835 566,854C533,873 500,882 469,882C410,882 358,856 312,803C251,734 221,632 221,499C221,364 250,261 309,190C368,118 433,82 505,82C566,82 624,112 681,173z" unicode="đ"></glyph><glyph d="M1042,1462l-1059,0l0,84l1059,0z" unicode="¯"></glyph><glyph d="M341,808C370,808 395,798 416,778C436,757 446,732 446,703C446,674 436,650 415,629C394,608 370,598 341,598C312,598 288,608 267,629C246,650 236,674 236,703C236,732 246,757 267,778C287,798 312,808 341,808z" unicode="·"></glyph><glyph d="M937,454l-525,0l-92,-214C297,187 286,148 286,122C286,101 296,83 316,68C335,52 378,42 443,37l0,-37l-427,0l0,37C73,47 109,60 126,76C160,108 198,173 239,271l477,1116l35,0l472,-1128C1261,168 1296,110 1327,83C1358,56 1401,40 1456,37l0,-37l-535,0l0,37C975,40 1012,49 1031,64C1050,79 1059,98 1059,120C1059,149 1046,196 1019,259M909,528l-230,548l-236,-548M450,1759l31,0C503,1718 528,1690 557,1673C605,1644 665,1630 738,1630C811,1630 871,1644 918,1672C952,1691 976,1720 989,1759l33,0C1016,1676 986,1609 931,1557C876,1505 811,1479 736,1479C662,1479 598,1505 543,1557C488,1608 457,1676 450,1759z" unicode="Ă"></glyph><glyph d="M583,132C489,59 430,17 406,6C370,-11 332,-19 291,-19C228,-19 176,3 135,46C94,89 73,146 73,217C73,262 83,300 103,333C130,378 178,421 246,461C313,501 426,550 583,607l0,36C583,734 569,797 540,831C511,865 468,882 413,882C371,882 338,871 313,848C288,825 275,799 275,770l2,-58C277,681 269,658 254,641C238,624 217,616 192,616C167,616 147,625 132,642C116,659 108,683 108,713C108,770 137,823 196,871C255,919 337,943 443,943C524,943 591,929 643,902C682,881 711,849 730,805C742,776 748,718 748,629l0,-311C748,231 750,177 753,158C756,138 762,125 770,118C777,111 786,108 796,108C807,108 816,110 824,115C838,124 865,148 905,188l0,-56C830,32 759,-18 691,-18C658,-18 632,-7 613,16C594,39 584,77 583,132M583,197l0,349C482,506 417,478 388,461C335,432 298,401 275,369C252,337 241,302 241,264C241,216 255,176 284,145C313,113 346,97 383,97C434,97 500,130 583,197M167,1358l31,0C220,1317 245,1289 274,1272C322,1243 382,1229 455,1229C528,1229 588,1243 635,1271C669,1290 693,1319 706,1358l33,0C733,1275 703,1208 648,1156C593,1104 528,1078 453,1078C379,1078 315,1104 260,1156C205,1207 174,1275 167,1358z" unicode="ă"></glyph><glyph d="M937,454l-525,0l-92,-214C297,187 286,148 286,122C286,101 296,83 316,68C335,52 378,42 443,37l0,-37l-427,0l0,37C73,47 109,60 126,76C160,108 198,173 239,271l477,1116l35,0l472,-1128C1261,168 1296,110 1327,83C1358,56 1401,40 1456,37l0,-37l-535,0l0,37C975,40 1012,49 1031,64C1050,79 1059,98 1059,120C1059,149 1046,196 1019,259M909,528l-230,548l-236,-548M1281,60C1262,40 1243,19 1224,-2C1204,-23 1186,-45 1170,-68C1154,-91 1141,-114 1130,-138C1119,-163 1114,-188 1113,-214C1112,-249 1121,-278 1140,-301C1159,-324 1185,-336 1218,-336C1231,-336 1245,-334 1261,-329C1277,-324 1292,-318 1305,-310l15,-29C1293,-366 1266,-387 1238,-404C1210,-421 1178,-429 1142,-429C1117,-429 1095,-425 1075,-416C1055,-408 1038,-397 1025,-382C1011,-367 1001,-350 994,-331C987,-312 983,-292 984,-271C985,-242 992,-214 1005,-187C1018,-160 1034,-134 1054,-110C1066,-96 1078,-83 1090,-71C1101,-60 1114,-48 1128,-35C1142,-22 1158,-9 1177,6C1196,21 1219,39 1246,60z" unicode="Ą"></glyph><glyph d="M583,132C489,59 430,17 406,6C370,-11 332,-19 291,-19C228,-19 176,3 135,46C94,89 73,146 73,217C73,262 83,300 103,333C130,378 178,421 246,461C313,501 426,550 583,607l0,36C583,734 569,797 540,831C511,865 468,882 413,882C371,882 338,871 313,848C288,825 275,799 275,770l2,-58C277,681 269,658 254,641C238,624 217,616 192,616C167,616 147,625 132,642C116,659 108,683 108,713C108,770 137,823 196,871C255,919 337,943 443,943C524,943 591,929 643,902C682,881 711,849 730,805C742,776 748,718 748,629l0,-311C748,231 750,177 753,158C756,138 762,125 770,118C777,111 786,108 796,108C807,108 816,110 824,115C838,124 865,148 905,188l0,-56C830,32 759,-18 691,-18C658,-18 632,-7 613,16C594,39 584,77 583,132M583,197l0,349C482,506 417,478 388,461C335,432 298,401 275,369C252,337 241,302 241,264C241,216 255,176 284,145C313,113 346,97 383,97C434,97 500,130 583,197M802,60C783,40 764,19 745,-2C725,-23 707,-45 691,-68C675,-91 662,-114 651,-138C640,-163 635,-188 634,-214C633,-249 642,-278 661,-301C680,-324 706,-336 739,-336C752,-336 766,-334 782,-329C798,-324 813,-318 826,-310l15,-29C814,-366 787,-387 759,-404C731,-421 699,-429 663,-429C638,-429 616,-425 596,-416C576,-408 559,-397 546,-382C532,-367 522,-350 515,-331C508,-312 504,-292 505,-271C506,-242 513,-214 526,-187C539,-160 555,-134 575,-110C587,-96 599,-83 611,-71C622,-60 635,-48 649,-35C663,-22 679,-9 698,6C717,21 740,39 767,60z" unicode="ą"></glyph><glyph d="M35,0l0,37l51,0C143,37 184,55 208,92C223,114 230,163 230,240l0,876C230,1201 221,1254 202,1275C176,1304 137,1319 86,1319l-51,0l0,37l552,0C790,1356 944,1333 1050,1287C1155,1241 1240,1164 1305,1057C1369,950 1401,826 1401,685C1401,496 1344,339 1229,212C1100,71 904,0 641,0M422,98C507,79 578,70 635,70C790,70 918,124 1020,233C1122,342 1173,489 1173,675C1173,862 1122,1010 1020,1118C918,1226 787,1280 627,1280C567,1280 499,1270 422,1251M774,1462l-184,0l-190,331l31,0l273,-212l229,212l30,0z" unicode="Ď"></glyph><glyph d="M1047,904l0,47C1115,992 1162,1030 1187,1065C1204,1090 1213,1121 1213,1156C1213,1177 1209,1192 1202,1202C1194,1212 1185,1217 1176,1217C1169,1217 1159,1215 1147,1210C1130,1203 1115,1200 1102,1200C1076,1200 1053,1210 1033,1231C1012,1251 1002,1276 1002,1306C1002,1339 1012,1365 1033,1384C1061,1409 1094,1422 1133,1422C1178,1422 1218,1403 1253,1366C1288,1328 1306,1281 1306,1225C1306,1146 1277,1075 1218,1010C1179,967 1122,932 1047,904M711,103C666,56 623,23 580,3C537,-18 491,-28 442,-28C342,-28 255,14 180,98C105,181 68,289 68,420C68,551 109,672 192,781C275,890 381,944 511,944C592,944 658,918 711,867l0,169C711,1141 709,1205 704,1229C699,1253 691,1269 680,1278C669,1287 656,1291 640,1291C623,1291 600,1286 571,1275l-13,35l273,112l45,0l0,-1059C876,256 879,190 884,167C889,143 897,126 908,117C919,108 931,103 946,103C964,103 988,109 1018,120l11,-35l-272,-113l-46,0M711,173l0,472C707,690 695,732 675,769C655,806 629,835 596,854C563,873 530,882 499,882C440,882 388,856 342,803C281,734 251,632 251,499C251,364 280,261 339,190C398,118 463,82 535,82C596,82 654,112 711,173z" unicode="ď"></glyph><glyph d="M35,0l0,37l51,0C143,37 184,56 209,93C223,114 230,163 230,240l0,438l-195,0l0,74l195,0l0,364C230,1201 221,1254 202,1275C176,1304 137,1319 86,1319l-51,0l0,37l552,0C797,1356 952,1332 1053,1285C1154,1237 1237,1161 1302,1056C1367,951 1400,828 1400,687C1400,496 1339,333 1217,200C1094,67 902,0 640,0M423,100C508,81 579,72 636,72C790,72 918,126 1020,235C1122,344 1173,491 1173,677C1173,864 1122,1012 1020,1120C918,1228 787,1282 628,1282C568,1282 500,1272 423,1253l0,-501l393,0l0,-74l-393,0z" unicode="Đ"></glyph><glyph d="M428,1282l0,-536l298,0C803,746 855,758 881,781C916,812 935,866 939,943l37,0l0,-472l-37,0C930,537 920,579 911,598C899,621 879,640 852,653C825,666 783,673 726,673l-298,0l0,-447C428,166 431,130 436,117C441,104 451,93 464,86C477,78 503,74 540,74l230,0C847,74 902,79 937,90C972,101 1005,122 1037,153C1078,194 1121,257 1164,340l40,0l-117,-340l-1045,0l0,37l48,0C122,37 152,45 181,60C202,71 217,87 225,108C232,129 236,173 236,239l0,881C236,1206 227,1259 210,1279C186,1306 146,1319 90,1319l-48,0l0,37l1045,0l15,-297l-39,0C1049,1130 1034,1179 1017,1206C1000,1233 974,1253 941,1267C914,1277 867,1282 800,1282M1043,60C1024,40 1005,19 986,-2C966,-23 948,-45 932,-68C916,-91 903,-114 892,-138C881,-163 876,-188 875,-214C874,-249 883,-278 902,-301C921,-324 947,-336 980,-336C993,-336 1007,-334 1023,-329C1039,-324 1054,-318 1067,-310l15,-29C1055,-366 1028,-387 1000,-404C972,-421 940,-429 904,-429C879,-429 857,-425 837,-416C817,-408 800,-397 787,-382C773,-367 763,-350 756,-331C749,-312 745,-292 746,-271C747,-242 754,-214 767,-187C780,-160 796,-134 816,-110C828,-96 840,-83 852,-71C863,-60 876,-48 890,-35C904,-22 920,-9 939,6C958,21 981,39 1008,60z" unicode="Ę"></glyph><glyph d="M218,571C217,435 250,328 317,251C384,174 462,135 552,135C612,135 664,152 709,185C753,218 790,274 820,354l31,-20C837,243 796,160 729,85C662,10 577,-28 476,-28C366,-28 272,15 194,101C115,186 76,301 76,446C76,603 116,725 197,813C277,900 378,944 499,944C602,944 686,910 752,843C818,775 851,684 851,571M218,629l424,0C639,688 632,729 621,753C604,790 580,820 547,841C514,862 479,873 443,873C388,873 338,852 295,809C251,766 225,706 218,629M681,60C662,40 643,19 624,-2C604,-23 586,-45 570,-68C554,-91 541,-114 530,-138C519,-163 514,-188 513,-214C512,-249 521,-278 540,-301C559,-324 585,-336 618,-336C631,-336 645,-334 661,-329C677,-324 692,-318 705,-310l15,-29C693,-366 666,-387 638,-404C610,-421 578,-429 542,-429C517,-429 495,-425 475,-416C455,-408 438,-397 425,-382C411,-367 401,-350 394,-331C387,-312 383,-292 384,-271C385,-242 392,-214 405,-187C418,-160 434,-134 454,-110C466,-96 478,-83 490,-71C501,-60 514,-48 528,-35C542,-22 558,-9 577,6C596,21 619,39 646,60z" unicode="ę"></glyph><glyph d="M428,1282l0,-536l298,0C803,746 855,758 881,781C916,812 935,866 939,943l37,0l0,-472l-37,0C930,537 920,579 911,598C899,621 879,640 852,653C825,666 783,673 726,673l-298,0l0,-447C428,166 431,130 436,117C441,104 451,93 464,86C477,78 503,74 540,74l230,0C847,74 902,79 937,90C972,101 1005,122 1037,153C1078,194 1121,257 1164,340l40,0l-117,-340l-1045,0l0,37l48,0C122,37 152,45 181,60C202,71 217,87 225,108C232,129 236,173 236,239l0,881C236,1206 227,1259 210,1279C186,1306 146,1319 90,1319l-48,0l0,37l1045,0l15,-297l-39,0C1049,1130 1034,1179 1017,1206C1000,1233 974,1253 941,1267C914,1277 867,1282 800,1282M715,1462l-184,0l-190,331l31,0l273,-212l229,212l30,0z" unicode="Ě"></glyph><glyph d="M218,571C217,435 250,328 317,251C384,174 462,135 552,135C612,135 664,152 709,185C753,218 790,274 820,354l31,-20C837,243 796,160 729,85C662,10 577,-28 476,-28C366,-28 272,15 194,101C115,186 76,301 76,446C76,603 116,725 197,813C277,900 378,944 499,944C602,944 686,910 752,843C818,775 851,684 851,571M218,629l424,0C639,688 632,729 621,753C604,790 580,820 547,841C514,862 479,873 443,873C388,873 338,852 295,809C251,766 225,706 218,629M580,1054l-184,0l-190,331l31,0l273,-212l229,212l30,0z" unicode="ě"></glyph><glyph d="M1174,375l33,-7l-116,-368l-1050,0l0,37l51,0C149,37 190,56 215,93C229,114 236,164 236,241l0,875C236,1201 227,1254 208,1275C182,1304 143,1319 92,1319l-51,0l0,37l614,0l0,-37C583,1320 533,1313 504,1299C475,1285 455,1267 444,1246C433,1225 428,1174 428,1093l0,-852C428,186 433,148 444,127C452,113 464,103 481,96C498,89 550,86 637,86l99,0C840,86 913,94 955,109C997,124 1035,152 1070,191C1105,230 1139,291 1174,375M759,1797l-295,-345l-34,0l105,345z" unicode="Ĺ"></glyph><glyph d="M379,1422l0,-1215C379,150 383,112 392,93C400,74 413,60 430,51C447,41 480,36 527,36l0,-36l-449,0l0,36C120,36 149,40 164,49C179,58 191,72 200,92C209,112 213,150 213,207l0,832C213,1142 211,1206 206,1230C201,1253 194,1269 184,1278C173,1287 160,1291 144,1291C127,1291 105,1286 78,1275l-17,35l273,112M514,1797l-295,-345l-34,0l105,345z" unicode="ĺ"></glyph><glyph d="M819,847l0,44C888,913 941,948 979,996C1016,1043 1035,1094 1035,1147C1035,1160 1032,1171 1026,1179C1021,1185 1016,1188 1012,1188C1005,1188 989,1182 964,1169C952,1162 939,1159 926,1159C893,1159 867,1169 848,1188C829,1207 819,1234 819,1268C819,1301 832,1329 857,1352C882,1375 912,1387 948,1387C992,1387 1031,1368 1066,1330C1100,1291 1117,1241 1117,1178C1117,1109 1093,1046 1046,987C998,928 922,881 819,847M1174,375l33,-7l-116,-368l-1050,0l0,37l51,0C149,37 190,56 215,93C229,114 236,164 236,241l0,875C236,1201 227,1254 208,1275C182,1304 143,1319 92,1319l-51,0l0,37l614,0l0,-37C583,1320 533,1313 504,1299C475,1285 455,1267 444,1246C433,1225 428,1174 428,1093l0,-852C428,186 433,148 444,127C452,113 464,103 481,96C498,89 550,86 637,86l99,0C840,86 913,94 955,109C997,124 1035,152 1070,191C1105,230 1139,291 1174,375z" unicode="Ľ"></glyph><glyph d="M555,904l0,47C623,992 669,1030 694,1065C712,1090 721,1121 721,1156C721,1177 717,1192 709,1202C701,1212 692,1217 683,1217C676,1217 666,1215 654,1210C637,1203 622,1200 611,1200C584,1200 561,1210 540,1231C519,1251 509,1276 509,1306C509,1339 519,1365 540,1384C569,1409 602,1422 640,1422C685,1422 726,1403 761,1366C796,1328 814,1281 814,1225C814,1146 785,1075 726,1010C686,967 629,932 555,904M378,1422l0,-1215C378,150 382,112 391,93C399,74 412,60 429,51C446,41 479,36 526,36l0,-36l-449,0l0,36C119,36 148,40 163,49C178,58 190,72 199,92C208,112 212,150 212,207l0,832C212,1142 210,1206 205,1230C200,1253 193,1269 183,1278C172,1287 159,1291 143,1291C126,1291 104,1286 77,1275l-17,35l273,112z" unicode="ľ"></glyph><glyph d="M1174,375l33,-7l-116,-368l-1050,0l0,37l51,0C149,37 190,56 215,93C229,114 236,164 236,241l0,875C236,1201 227,1254 208,1275C182,1304 143,1319 92,1319l-51,0l0,37l614,0l0,-37C583,1320 533,1313 504,1299C475,1285 455,1267 444,1246C433,1225 428,1174 428,1093l0,-852C428,186 433,148 444,127C452,113 464,103 481,96C498,89 550,86 637,86l99,0C840,86 913,94 955,109C997,124 1035,152 1070,191C1105,230 1139,291 1174,375M761,813C790,813 815,803 836,783C856,762 866,737 866,708C866,679 856,655 835,634C814,613 790,603 761,603C732,603 708,613 687,634C666,655 656,679 656,708C656,737 666,762 687,783C707,803 732,813 761,813z" unicode="Ŀ"></glyph><glyph d="M379,1422l0,-1215C379,150 383,112 392,93C400,74 413,60 430,51C447,41 480,36 527,36l0,-36l-449,0l0,36C120,36 149,40 164,49C179,58 191,72 200,92C209,112 213,150 213,207l0,832C213,1142 211,1206 206,1230C201,1253 194,1269 184,1278C173,1287 160,1291 144,1291C127,1291 105,1286 78,1275l-17,35l273,112M588,808C617,808 642,798 663,778C683,757 693,732 693,703C693,674 683,650 662,629C641,608 617,598 588,598C559,598 535,608 514,629C493,650 483,674 483,703C483,732 493,757 514,778C534,798 559,808 588,808z" unicode="ŀ"></glyph><glyph d="M-27,1356l368,0l829,-1017l0,782C1170,1204 1161,1256 1142,1277C1117,1305 1078,1319 1025,1319l-47,0l0,37l472,0l0,-37l-48,0C1345,1319 1304,1302 1280,1267C1265,1246 1258,1197 1258,1121l0,-1143l-36,0l-894,1092l0,-835C328,152 337,100 355,79C380,51 419,37 472,37l48,0l0,-37l-472,0l0,37l47,0C153,37 194,54 218,89C233,110 240,159 240,235l0,943C201,1224 171,1254 151,1269C130,1284 100,1297 61,1310C42,1316 12,1319 -27,1319M931,1797l-295,-345l-34,0l105,345z" unicode="Ń"></glyph><glyph d="M331,749C438,878 541,943 638,943C688,943 731,931 767,906C803,881 832,839 853,782C868,742 875,681 875,598l0,-391C875,149 880,110 889,89C896,72 908,59 925,50C941,41 971,36 1015,36l0,-36l-453,0l0,36l19,0C624,36 654,43 671,56C688,69 699,88 706,113C709,123 710,154 710,207l0,375C710,665 699,726 678,764C656,801 619,820 568,820C489,820 410,777 331,690l0,-483C331,145 335,107 342,92C351,73 364,59 381,50C397,41 430,36 480,36l0,-36l-453,0l0,36l20,0C94,36 125,48 142,72C158,95 166,140 166,207l0,340C166,657 164,724 159,748C154,772 146,788 136,797C125,806 111,810 94,810C75,810 53,805 27,795l-15,36l276,112l43,0M709,1390l-295,-345l-34,0l105,345z" unicode="ń"></glyph><glyph d="M-27,1356l368,0l829,-1017l0,782C1170,1204 1161,1256 1142,1277C1117,1305 1078,1319 1025,1319l-47,0l0,37l472,0l0,-37l-48,0C1345,1319 1304,1302 1280,1267C1265,1246 1258,1197 1258,1121l0,-1143l-36,0l-894,1092l0,-835C328,152 337,100 355,79C380,51 419,37 472,37l48,0l0,-37l-472,0l0,37l47,0C153,37 194,54 218,89C233,110 240,159 240,235l0,943C201,1224 171,1254 151,1269C130,1284 100,1297 61,1310C42,1316 12,1319 -27,1319M840,1462l-184,0l-190,331l31,0l273,-212l229,212l30,0z" unicode="Ň"></glyph><glyph d="M331,749C438,878 541,943 638,943C688,943 731,931 767,906C803,881 832,839 853,782C868,742 875,681 875,598l0,-391C875,149 880,110 889,89C896,72 908,59 925,50C941,41 971,36 1015,36l0,-36l-453,0l0,36l19,0C624,36 654,43 671,56C688,69 699,88 706,113C709,123 710,154 710,207l0,375C710,665 699,726 678,764C656,801 619,820 568,820C489,820 410,777 331,690l0,-483C331,145 335,107 342,92C351,73 364,59 381,50C397,41 430,36 480,36l0,-36l-453,0l0,36l20,0C94,36 125,48 142,72C158,95 166,140 166,207l0,340C166,657 164,724 159,748C154,772 146,788 136,797C125,806 111,810 94,810C75,810 53,805 27,795l-15,36l276,112l43,0M582,1054l-184,0l-190,331l31,0l273,-212l229,212l30,0z" unicode="ň"></glyph><glyph d="M749,1387C925,1387 1078,1320 1207,1187C1336,1053 1400,886 1400,686C1400,480 1335,309 1205,173C1075,37 918,-31 733,-31C546,-31 390,35 263,168C136,301 72,472 72,683C72,898 145,1074 292,1210C419,1328 572,1387 749,1387M730,1314C609,1314 511,1269 438,1179C347,1067 301,903 301,687C301,466 348,295 443,176C516,85 612,40 731,40C858,40 964,90 1047,189C1130,288 1171,445 1171,659C1171,891 1125,1064 1034,1178C961,1269 859,1314 730,1314M587,1797l187,0l-220,-346l-33,0M900,1797l187,0l-218,-346l-34,0z" unicode="Ő"></glyph><glyph d="M512,943C651,943 762,890 846,785C917,695 953,592 953,475C953,393 933,310 894,226C855,142 801,79 732,36C663,-7 586,-28 501,-28C363,-28 253,27 172,137C103,230 69,334 69,449C69,533 90,617 132,700C173,783 228,844 296,884C364,923 436,943 512,943M481,878C446,878 410,868 375,847C339,826 310,789 288,736C266,683 255,616 255,533C255,400 282,285 335,188C388,91 457,43 544,43C609,43 662,70 704,123C746,176 767,268 767,398C767,561 732,689 662,782C615,846 554,878 481,878M350,1390l187,0l-220,-346l-33,0M663,1390l187,0l-218,-346l-34,0z" unicode="ő"></glyph><glyph d="M1384,0l-362,0l-459,634C529,633 501,632 480,632C471,632 462,632 452,633C442,633 432,633 421,634l0,-394C421,155 430,102 449,81C474,52 512,37 563,37l53,0l0,-37l-581,0l0,37l51,0C143,37 184,56 209,93C223,114 230,163 230,240l0,876C230,1201 221,1254 202,1275C176,1304 137,1319 86,1319l-51,0l0,37l494,0C673,1356 779,1346 848,1325C916,1304 974,1265 1022,1209C1069,1152 1093,1085 1093,1007C1093,924 1066,851 1012,790C957,729 873,685 759,660l280,-389C1103,182 1158,122 1204,93C1250,64 1310,45 1384,37M421,697C434,697 445,697 454,697C463,696 471,696 477,696C606,696 704,724 770,780C835,836 868,907 868,994C868,1079 842,1148 789,1201C736,1254 665,1280 578,1280C539,1280 487,1274 421,1261M809,1797l-295,-345l-34,0l105,345z" unicode="Ŕ"></glyph><glyph d="M332,943l0,-206C409,874 487,943 568,943C605,943 635,932 659,910C683,887 695,861 695,832C695,806 686,784 669,766C652,748 631,739 607,739C584,739 558,751 529,774C500,797 478,808 464,808C452,808 439,801 425,788C395,761 364,716 332,653l0,-439C332,163 338,125 351,99C360,81 375,66 397,54C419,42 451,36 492,36l0,-36l-469,0l0,36C70,36 104,43 127,58C144,69 155,86 162,109C165,120 167,153 167,206l0,355C167,668 165,731 161,752C156,772 148,787 137,796C125,805 110,810 93,810C72,810 49,805 23,795l-10,36l277,112M574,1390l-295,-345l-34,0l105,345z" unicode="ŕ"></glyph><glyph d="M1384,0l-362,0l-459,634C529,633 501,632 480,632C471,632 462,632 452,633C442,633 432,633 421,634l0,-394C421,155 430,102 449,81C474,52 512,37 563,37l53,0l0,-37l-581,0l0,37l51,0C143,37 184,56 209,93C223,114 230,163 230,240l0,876C230,1201 221,1254 202,1275C176,1304 137,1319 86,1319l-51,0l0,37l494,0C673,1356 779,1346 848,1325C916,1304 974,1265 1022,1209C1069,1152 1093,1085 1093,1007C1093,924 1066,851 1012,790C957,729 873,685 759,660l280,-389C1103,182 1158,122 1204,93C1250,64 1310,45 1384,37M421,697C434,697 445,697 454,697C463,696 471,696 477,696C606,696 704,724 770,780C835,836 868,907 868,994C868,1079 842,1148 789,1201C736,1254 665,1280 578,1280C539,1280 487,1274 421,1261M698,1462l-184,0l-190,331l31,0l273,-212l229,212l30,0z" unicode="Ř"></glyph><glyph d="M332,943l0,-206C409,874 487,943 568,943C605,943 635,932 659,910C683,887 695,861 695,832C695,806 686,784 669,766C652,748 631,739 607,739C584,739 558,751 529,774C500,797 478,808 464,808C452,808 439,801 425,788C395,761 364,716 332,653l0,-439C332,163 338,125 351,99C360,81 375,66 397,54C419,42 451,36 492,36l0,-36l-469,0l0,36C70,36 104,43 127,58C144,69 155,86 162,109C165,120 167,153 167,206l0,355C167,668 165,731 161,752C156,772 148,787 137,796C125,805 110,810 93,810C72,810 49,805 23,795l-10,36l277,112M447,1054l-184,0l-190,331l31,0l273,-212l229,212l30,0z" unicode="ř"></glyph><glyph d="M939,1387l0,-469l-37,0C890,1008 869,1080 838,1133C807,1186 762,1229 705,1260C648,1291 588,1307 527,1307C458,1307 400,1286 355,1244C310,1201 287,1153 287,1099C287,1058 301,1020 330,986C371,936 470,869 625,786C752,718 838,666 885,630C931,593 967,550 992,501C1017,452 1029,400 1029,346C1029,243 989,155 910,81C830,6 727,-31 602,-31C563,-31 526,-28 491,-22C470,-19 428,-6 363,15C298,36 256,46 239,46C222,46 209,41 200,31C190,21 183,0 178,-31l-37,0l0,465l37,0C195,337 219,264 248,216C277,167 322,127 383,95C443,63 509,47 581,47C664,47 730,69 779,113C827,157 851,209 851,269C851,302 842,336 824,370C805,404 777,436 738,465C712,485 641,528 525,593C409,658 327,709 278,748C229,787 191,829 166,876C141,923 128,974 128,1030C128,1127 165,1211 240,1282C315,1352 410,1387 525,1387C597,1387 673,1369 754,1334C791,1317 818,1309 833,1309C850,1309 865,1314 876,1325C887,1335 895,1356 902,1387M762,1797l-295,-345l-34,0l105,345z" unicode="Ś"></glyph><glyph d="M656,943l0,-312l-33,0C598,729 565,796 526,831C486,866 435,884 374,884C327,884 290,872 261,847C232,822 218,795 218,765C218,728 229,696 250,669C271,642 313,613 376,582l146,-71C657,445 725,358 725,250C725,167 694,100 631,49C568,-2 497,-28 419,-28C363,-28 299,-18 227,2C205,9 187,12 173,12C158,12 146,3 137,-14l-33,0l0,327l33,0C156,220 191,149 244,102C297,55 356,31 421,31C467,31 505,45 534,72C563,99 577,131 577,169C577,215 561,254 529,285C496,316 432,356 335,404C238,452 175,495 145,534C115,572 100,620 100,678C100,753 126,816 178,867C229,918 296,943 378,943C414,943 458,935 509,920C543,910 566,905 577,905C588,905 596,907 602,912C608,917 615,927 623,943M632,1390l-295,-345l-34,0l105,345z" unicode="ś"></glyph><glyph d="M1185,1356l15,-318l-38,0C1155,1094 1145,1134 1132,1158C1111,1197 1084,1225 1050,1244C1015,1262 970,1271 914,1271l-191,0l0,-1036C723,152 732,100 750,79C775,51 814,37 867,37l47,0l0,-37l-575,0l0,37l48,0C444,37 485,54 509,89C524,110 531,159 531,235l0,1036l-163,0C305,1271 260,1266 233,1257C198,1244 169,1220 144,1184C119,1148 105,1099 100,1038l-38,0l16,318M611,16l60,0l-50,-79C663,-74 694,-92 715,-117C736,-142 746,-173 746,-209C746,-257 726,-299 686,-335C646,-372 594,-390 531,-390C506,-390 475,-388 437,-383l0,43C456,-343 472,-344 485,-344C519,-344 548,-333 571,-310C594,-288 606,-263 606,-234C606,-214 598,-197 583,-182C568,-167 549,-160 526,-160C519,-160 511,-161 500,-162z" unicode="Ţ"></glyph><glyph d="M330,1217l0,-301l214,0l0,-70l-214,0l0,-594C330,193 339,153 356,132C373,111 394,101 421,101C443,101 464,108 485,122C506,135 522,155 533,182l39,0C549,117 516,68 473,35C430,2 386,-15 341,-15C310,-15 280,-6 251,11C222,28 200,52 186,84C172,115 165,164 165,230l0,616l-145,0l0,33C57,894 94,919 133,954C171,989 205,1030 235,1078C250,1103 272,1150 299,1217M341,16l60,0l-50,-79C393,-74 424,-92 445,-117C466,-142 476,-173 476,-209C476,-257 456,-299 416,-335C376,-372 324,-390 261,-390C236,-390 205,-388 167,-383l0,43C186,-343 202,-344 215,-344C249,-344 278,-333 301,-310C324,-288 336,-263 336,-234C336,-214 328,-197 313,-182C298,-167 279,-160 256,-160C249,-160 241,-161 230,-162z" unicode="ţ"></glyph><glyph d="M1185,1356l15,-318l-38,0C1155,1094 1145,1134 1132,1158C1111,1197 1084,1225 1050,1244C1015,1262 970,1271 914,1271l-191,0l0,-1036C723,152 732,100 750,79C775,51 814,37 867,37l47,0l0,-37l-575,0l0,37l48,0C444,37 485,54 509,89C524,110 531,159 531,235l0,1036l-163,0C305,1271 260,1266 233,1257C198,1244 169,1220 144,1184C119,1148 105,1099 100,1038l-38,0l16,318M724,1462l-184,0l-190,331l31,0l273,-212l229,212l30,0z" unicode="Ť"></glyph><glyph d="M598,904l0,47C666,992 712,1030 737,1065C755,1090 764,1121 764,1156C764,1177 760,1192 753,1202C745,1212 736,1217 726,1217C719,1217 710,1215 698,1210C680,1203 665,1200 654,1200C627,1200 604,1210 583,1231C562,1251 552,1276 552,1306C552,1339 562,1365 583,1384C612,1409 645,1422 683,1422C728,1422 769,1403 804,1366C839,1328 857,1281 857,1225C857,1146 828,1075 769,1010C730,967 673,932 598,904M329,1217l0,-301l214,0l0,-70l-214,0l0,-594C329,193 338,153 355,132C372,111 393,101 420,101C442,101 463,108 484,122C505,135 521,155 532,182l39,0C548,117 515,68 472,35C429,2 385,-15 340,-15C309,-15 279,-6 250,11C221,28 199,52 185,84C171,115 164,164 164,230l0,616l-145,0l0,33C56,894 93,919 132,954C170,989 204,1030 234,1078C249,1103 271,1150 298,1217z" unicode="ť"></glyph><glyph d="M977,1319l0,37l480,0l0,-37l-51,0C1353,1319 1312,1297 1283,1252C1269,1231 1262,1183 1262,1108l0,-550C1262,422 1249,317 1222,242C1195,167 1142,102 1063,49C984,-5 876,-32 740,-32C592,-32 480,-6 403,45C326,96 272,165 240,252C219,311 208,423 208,586l0,530C208,1199 197,1254 174,1280C151,1306 113,1319 62,1319l-51,0l0,37l586,0l0,-37l-52,0C489,1319 449,1301 425,1266C408,1242 400,1192 400,1116l0,-591C400,472 405,412 415,344C424,276 442,223 467,185C492,147 529,116 577,91C624,66 683,54 752,54C841,54 920,73 990,112C1060,151 1108,200 1134,261C1159,321 1172,423 1172,567l0,549C1172,1201 1163,1254 1144,1275C1118,1304 1079,1319 1028,1319M783,1814C836,1814 882,1795 919,1758C956,1721 975,1676 975,1623C975,1570 956,1524 919,1487C882,1450 836,1431 783,1431C730,1431 685,1450 648,1487C611,1524 592,1570 592,1623C592,1676 611,1721 648,1758C685,1795 730,1814 783,1814M783,1745C749,1745 720,1733 697,1710C673,1686 661,1657 661,1623C661,1590 673,1561 697,1537C720,1513 749,1501 783,1501C817,1501 846,1513 870,1537C893,1561 905,1590 905,1623C905,1657 893,1686 870,1710C846,1733 817,1745 783,1745z" unicode="Ů"></glyph><glyph d="M867,916l0,-555C867,255 870,190 875,167C880,143 888,126 899,117C910,108 922,103 937,103C958,103 981,109 1007,120l14,-35l-274,-113l-45,0l0,194C623,81 563,27 522,5C481,-17 437,-28 391,-28C340,-28 295,-13 258,17C220,46 194,84 179,131C164,178 157,244 157,329l0,409C157,781 152,811 143,828C134,845 120,858 102,867C83,876 50,880 2,879l0,37l321,0l0,-613C323,218 338,162 368,135C397,108 433,95 475,95C504,95 536,104 573,122C609,140 652,174 702,225l0,519C702,796 693,831 674,850C655,868 615,878 555,879l0,37M490,1424C543,1424 589,1405 626,1368C663,1331 682,1286 682,1233C682,1180 663,1134 626,1097C589,1060 543,1041 490,1041C437,1041 392,1060 355,1097C318,1134 299,1180 299,1233C299,1286 318,1331 355,1368C392,1405 437,1424 490,1424M490,1355C456,1355 427,1343 404,1320C380,1296 368,1267 368,1233C368,1200 380,1171 404,1147C427,1123 456,1111 490,1111C524,1111 553,1123 577,1147C600,1171 612,1200 612,1233C612,1267 600,1296 577,1320C553,1343 524,1355 490,1355z" unicode="ů"></glyph><glyph d="M977,1319l0,37l480,0l0,-37l-51,0C1353,1319 1312,1297 1283,1252C1269,1231 1262,1183 1262,1108l0,-550C1262,422 1249,317 1222,242C1195,167 1142,102 1063,49C984,-5 876,-32 740,-32C592,-32 480,-6 403,45C326,96 272,165 240,252C219,311 208,423 208,586l0,530C208,1199 197,1254 174,1280C151,1306 113,1319 62,1319l-51,0l0,37l586,0l0,-37l-52,0C489,1319 449,1301 425,1266C408,1242 400,1192 400,1116l0,-591C400,472 405,412 415,344C424,276 442,223 467,185C492,147 529,116 577,91C624,66 683,54 752,54C841,54 920,73 990,112C1060,151 1108,200 1134,261C1159,321 1172,423 1172,567l0,549C1172,1201 1163,1254 1144,1275C1118,1304 1079,1319 1028,1319M609,1797l187,0l-220,-346l-33,0M922,1797l187,0l-218,-346l-34,0z" unicode="Ű"></glyph><glyph d="M867,916l0,-555C867,255 870,190 875,167C880,143 888,126 899,117C910,108 922,103 937,103C958,103 981,109 1007,120l14,-35l-274,-113l-45,0l0,194C623,81 563,27 522,5C481,-17 437,-28 391,-28C340,-28 295,-13 258,17C220,46 194,84 179,131C164,178 157,244 157,329l0,409C157,781 152,811 143,828C134,845 120,858 102,867C83,876 50,880 2,879l0,37l321,0l0,-613C323,218 338,162 368,135C397,108 433,95 475,95C504,95 536,104 573,122C609,140 652,174 702,225l0,519C702,796 693,831 674,850C655,868 615,878 555,879l0,37M314,1390l187,0l-220,-346l-33,0M627,1390l187,0l-218,-346l-34,0z" unicode="ű"></glyph><glyph d="M1178,1356l-891,-1274l556,0C928,82 994,101 1040,138C1085,175 1126,251 1161,365l33,-6l-64,-359l-1104,0l0,37l870,1238l-434,0C390,1275 338,1267 306,1252C273,1236 249,1213 232,1184C215,1154 199,1098 185,1017l-38,0l28,339M854,1797l-295,-345l-34,0l105,345z" unicode="Ź"></glyph><glyph d="M860,281l-11,-281l-808,0l0,36l608,810l-300,0C284,846 242,842 222,834C202,825 186,809 173,786C155,753 145,711 142,662l-40,0l6,254l768,0l0,-37l-614,-812l334,0C666,67 714,73 739,85C764,96 784,117 799,146C810,167 819,212 826,281M678,1390l-295,-345l-34,0l105,345z" unicode="ź"></glyph><glyph d="M1178,1356l-891,-1274l556,0C928,82 994,101 1040,138C1085,175 1126,251 1161,365l33,-6l-64,-359l-1104,0l0,37l870,1238l-434,0C390,1275 338,1267 306,1252C273,1236 249,1213 232,1184C215,1154 199,1098 185,1017l-38,0l28,339M646,1709C676,1709 702,1698 723,1677C744,1656 755,1630 755,1600C755,1570 744,1544 723,1523C702,1502 676,1491 646,1491C616,1491 590,1502 569,1523C548,1544 537,1570 537,1600C537,1630 548,1656 569,1677C590,1698 615,1709 646,1709z" unicode="Ż"></glyph><glyph d="M860,281l-11,-281l-808,0l0,36l608,810l-300,0C284,846 242,842 222,834C202,825 186,809 173,786C155,753 145,711 142,662l-40,0l6,254l768,0l0,-37l-614,-812l334,0C666,67 714,73 739,85C764,96 784,117 799,146C810,167 819,212 826,281M486,1337C516,1337 542,1326 563,1305C584,1284 595,1258 595,1228C595,1198 584,1172 563,1151C542,1130 516,1119 486,1119C456,1119 430,1130 409,1151C388,1172 377,1198 377,1228C377,1258 388,1284 409,1305C430,1326 455,1337 486,1337z" unicode="ż"></glyph><glyph d="M1125,1356l5,-317l-39,0C1088,1103 1075,1154 1050,1193C1025,1232 995,1256 960,1267C924,1277 872,1282 805,1282l-380,0l0,-1035C425,158 437,101 460,77C483,53 536,40 619,37l0,-37l-582,0l0,37C121,40 175,53 198,77C221,101 233,158 233,247l0,862C233,1198 221,1255 198,1279C175,1303 121,1316 37,1319l0,37z" unicode="Γ"></glyph><glyph d="M753,1387C919,1387 1069,1323 1203,1195C1337,1066 1404,896 1404,685C1404,475 1338,303 1206,170C1074,36 918,-31 737,-31C536,-31 376,39 256,180C136,321 76,488 76,683C76,894 144,1064 279,1193C414,1322 572,1387 753,1387M734,1314C605,1314 501,1261 423,1154C344,1047 305,891 305,687C305,496 342,341 415,221C488,100 595,40 735,40C871,40 978,93 1057,199C1136,304 1175,458 1175,659C1175,863 1138,1023 1065,1140C991,1256 881,1314 734,1314M499,920l38,0C537,863 549,822 572,797C595,772 638,760 701,760l81,0C841,760 883,772 907,797C931,821 943,862 943,920l38,0l0,-483l-38,0C943,494 931,534 908,559C885,584 842,596 780,596l-83,0C638,596 596,584 573,559C549,534 537,494 537,437l-38,0z" unicode="Θ"></glyph><glyph d="M844,191C853,88 917,37 1036,37l0,-37l-576,0l0,37C579,37 643,88 652,191C476,191 335,238 230,333C124,428 71,543 71,678C71,823 125,938 232,1025C339,1111 479,1158 652,1165C644,1268 580,1319 460,1319l0,37l576,0l0,-37C917,1319 853,1268 844,1165C1035,1159 1179,1109 1278,1015C1376,920 1425,808 1425,678C1425,543 1372,428 1267,333C1162,238 1021,191 844,191M652,1110C538,1103 449,1068 384,1004C319,939 287,825 287,661C287,398 409,260 652,246M844,1110l0,-864C954,251 1043,285 1110,348C1177,411 1210,527 1210,694C1210,957 1088,1096 844,1110z" unicode="Φ"></glyph><glyph d="M788,916l170,0l-103,-463C835,365 821,311 814,291C841,168 879,107 930,107C990,107 1021,148 1023,231l36,0C1057,154 1043,91 1017,44C990,-4 956,-28 913,-28C878,-28 851,-14 834,15C817,44 798,102 778,191C709,45 595,-28 438,-28C331,-28 245,14 182,98C119,181 87,301 87,457C87,610 122,730 191,815C260,900 344,943 441,943C510,943 566,919 610,870C654,821 693,742 727,632M700,524C669,631 634,715 595,776C556,836 510,866 456,866C334,866 273,723 273,438C273,167 331,32 448,32C549,32 624,151 673,390z" unicode="α"></glyph><glyph d="M494,853C461,890 414,935 355,987C290,1044 246,1090 223,1123C200,1156 189,1192 189,1231C189,1290 216,1336 271,1370C326,1403 397,1420 485,1420C573,1420 650,1405 716,1375C781,1345 814,1304 814,1251C814,1226 806,1205 790,1188C774,1171 755,1163 734,1163C703,1163 667,1186 626,1232C584,1279 549,1312 520,1331C491,1350 457,1359 418,1359C369,1359 328,1348 297,1326C265,1304 249,1276 249,1242C249,1210 262,1180 288,1152C314,1124 381,1073 489,999C604,920 686,858 734,813C781,768 820,714 850,650C880,586 895,518 895,447C895,322 851,211 763,116C674,20 571,-28 453,-28C346,-28 255,10 181,87C107,164 70,266 70,394C70,517 111,620 193,703C274,786 375,836 494,853M538,807C347,776 251,644 251,413C251,294 275,201 323,135C370,69 426,36 489,36C555,36 609,68 652,132C695,195 716,281 716,390C716,547 657,686 538,807z" unicode="δ"></glyph><glyph d="M316,485C185,532 119,602 119,697C119,772 154,831 224,876C293,921 380,943 483,943C577,943 652,928 707,897C762,866 790,828 790,785C790,762 781,743 764,726C747,709 727,700 704,700C667,700 636,726 612,778C579,850 529,886 462,886C409,886 366,869 332,834C298,799 281,751 281,689C281,567 344,506 470,506C483,506 499,507 516,510C546,514 569,516 586,516C627,516 647,504 647,481C647,455 626,442 585,442C570,442 548,444 519,449C497,453 480,455 468,455C335,455 268,387 268,251C268,185 286,132 321,92C356,51 406,31 469,31C548,31 601,72 627,154C640,197 655,227 672,244C688,261 710,269 737,269C760,269 780,261 799,245C817,228 826,207 826,182C826,121 792,71 724,32C656,-8 574,-28 477,-28C371,-28 277,-3 195,48C112,99 71,166 71,251C71,357 153,435 316,485z" unicode="ε"></glyph><glyph d="M1063,916l0,-146l-390,0C758,721 828,660 882,586C936,511 963,432 963,349C963,240 920,150 835,79C749,8 652,-28 543,-28C414,-28 303,23 210,124C117,225 70,342 70,476C70,571 95,654 144,727C193,800 250,849 315,876C380,903 467,916 578,916M606,770l-35,0C471,770 391,745 332,696C272,646 242,568 242,462C242,349 273,250 336,164C399,77 472,34 556,34C623,34 679,67 723,132C767,197 789,275 789,367C789,513 728,647 606,770z" unicode="σ"></glyph><glyph d="M493,770l-29,-287C459,433 457,383 457,333C457,238 468,180 491,160C513,139 538,129 567,129C631,129 669,169 681,250l37,0C696,65 622,-28 497,-28C366,-28 300,47 300,198C300,274 307,369 322,482l37,288l-99,0C205,770 163,761 133,743C102,724 74,687 48,632l-36,0C33,705 59,764 88,807C117,850 145,879 172,894C199,909 238,916 291,916l492,0l0,-146z" unicode="τ"></glyph><glyph d="M474,943l0,-36C327,869 253,730 253,489C253,228 345,75 528,29l0,581C528,695 533,757 544,796C555,835 578,869 615,899C651,928 695,943 746,943C836,943 920,901 997,816C1074,731 1112,621 1112,485C1112,358 1073,244 994,144C915,44 795,-13 636,-27l0,-411l-108,0l0,411C389,-15 278,37 195,129C111,220 69,339 69,486C69,618 107,726 183,810C259,893 356,938 474,943M636,29C846,60 951,196 951,436C951,547 929,640 884,715C839,790 786,827 725,827C703,827 685,819 670,804C655,788 645,769 642,748C638,727 636,685 636,622z" unicode="φ"></glyph><glyph d="M1042,-284l-1059,0l0,84l1059,0M1042,-442l-1059,0l0,84l1059,0z" unicode="‗"></glyph><glyph d="M360,359l-38,0l-88,810C230,1204 228,1231 228,1248C228,1290 239,1324 262,1349C284,1374 311,1387 342,1387C373,1387 400,1374 422,1349C443,1324 454,1286 454,1236C454,1220 453,1198 450,1169M340,193C371,193 397,182 419,161C440,139 451,113 451,83C451,52 440,26 419,5C397,-17 371,-28 340,-28C309,-28 283,-17 262,5C240,26 229,52 229,83C229,113 240,139 262,161C283,182 309,193 340,193M851,359l-38,0l-88,810C721,1204 719,1231 719,1248C719,1290 730,1324 753,1349C775,1374 802,1387 833,1387C864,1387 891,1374 913,1349C934,1324 945,1286 945,1236C945,1220 944,1198 941,1169M831,193C862,193 888,182 910,161C931,139 942,113 942,83C942,52 931,26 910,5C888,-17 862,-28 831,-28C800,-28 774,-17 753,5C731,26 720,52 720,83C720,113 731,139 753,161C774,182 800,193 831,193z" unicode="‼"></glyph><glyph d="M210,1026C275,1102 338,1140 401,1140C447,1140 484,1124 512,1091C539,1058 553,1004 553,929l0,-231C553,665 555,644 560,634C565,624 572,617 582,612C591,607 611,605 640,605l0,-36l-289,0l0,36C384,605 406,608 418,613C427,617 434,624 439,635C443,643 445,664 445,698l0,222C445,973 438,1008 423,1026C408,1044 386,1053 356,1053C306,1053 257,1028 210,979l0,-281C210,664 212,643 216,635C221,624 229,617 239,612C249,607 271,605 304,605l0,-36l-289,0l0,36C42,605 62,608 75,614C84,619 91,625 94,633C99,644 102,666 102,698l0,201C102,962 101,1001 98,1014C95,1027 91,1036 86,1041C80,1045 71,1047 58,1047C46,1047 32,1044 16,1038l-14,33l179,69l29,0z" unicode="ⁿ"></glyph><glyph d="M44,1356l514,0C659,1356 748,1339 826,1306C903,1272 963,1223 1006,1158C1035,1115 1052,1058 1059,986C1091,1021 1115,1052 1132,1080C1148,1107 1166,1149 1186,1205l34,0l0,-291l171,0l0,-58l-171,0l0,-614C1220,194 1223,162 1228,147C1233,132 1241,120 1252,112C1263,104 1274,100 1287,100C1297,100 1308,103 1321,110C1334,117 1355,135 1386,165l0,141l37,0C1434,241 1451,191 1472,154C1493,117 1522,88 1560,66C1598,44 1634,33 1667,33C1710,33 1746,47 1775,75C1804,103 1819,137 1819,176C1819,212 1805,247 1778,280C1751,313 1693,355 1605,406C1516,457 1457,501 1428,539C1399,577 1384,622 1384,675C1384,749 1409,811 1458,861C1507,911 1567,936 1639,936C1672,936 1718,928 1775,911C1796,905 1810,902 1817,902C1825,902 1836,905 1851,912l43,0l0,-275l-36,0C1844,724 1817,786 1777,824C1736,862 1689,881 1634,881C1595,881 1563,868 1536,842C1509,816 1496,786 1496,752C1496,717 1512,683 1543,651C1566,628 1624,590 1719,537C1814,483 1877,435 1909,392C1941,349 1957,301 1957,248C1957,171 1930,106 1875,53C1820,0 1750,-27 1665,-27C1634,-27 1591,-19 1537,-3C1503,8 1479,13 1464,13C1453,13 1441,9 1430,0l-44,0l0,86C1348,43 1316,13 1289,-3C1262,-19 1235,-27 1207,-27C1164,-27 1129,-10 1101,25C1073,59 1059,114 1059,191l1,48l0,617l-20,0C1003,777 959,719 907,683C834,632 748,607 651,607C624,607 593,611 557,618C521,625 480,636 435,650l0,-444C435,146 449,102 478,75C506,47 551,34 614,35l0,-35l-570,0l0,35C93,35 129,41 153,54C176,67 194,85 206,108C217,131 223,168 223,221l0,939C223,1213 210,1253 184,1280C157,1306 111,1320 44,1321M435,714C460,702 484,693 507,687C530,680 551,677 571,677C636,677 693,704 742,758C791,812 815,884 815,974C815,1069 789,1143 737,1197C685,1251 618,1278 537,1278C508,1278 474,1272 435,1260z" unicode="₧"></glyph><glyph d="M492,876l76,0C529,797 499,742 480,711C460,679 424,631 373,567l1595,0l0,-101l-1595,0C442,394 508,291 571,157l-78,0C407,253 333,326 271,376C209,425 145,466 79,498l0,45C137,568 198,605 263,656C328,707 404,780 492,876z" unicode="←"></glyph><glyph d="M153,926C250,1015 323,1091 374,1156C424,1221 461,1282 486,1339l46,0C563,1273 604,1209 654,1147C703,1085 776,1011 872,925l0,-77C738,911 635,976 563,1045l0,-1474l-101,0l0,1474C398,994 350,959 319,939C287,919 232,889 153,850z" unicode="↑"></glyph><glyph d="M1555,876C1644,779 1720,706 1785,656C1850,605 1911,568 1968,543l0,-45C1902,466 1838,425 1776,376C1714,326 1640,253 1554,157l-77,0C1540,291 1605,394 1674,466l-1595,0l0,101l1595,0C1623,632 1588,680 1568,711C1548,742 1518,797 1479,876z" unicode="→"></glyph><glyph d="M153,-16l0,76C232,21 288,-9 319,-29C350,-49 398,-84 462,-135l0,1474l101,0l0,-1474C635,-66 738,-1 872,62l0,-77C776,-101 703,-175 654,-237C604,-299 563,-363 532,-429l-46,0C461,-372 424,-311 374,-246C323,-181 250,-105 153,-16z" unicode="↓"></glyph><glyph d="M1968,540l0,-45C1905,466 1844,428 1783,379C1722,330 1649,257 1562,158l-80,0C1528,273 1593,376 1676,469l-1305,0C454,376 519,273 565,158l-80,0C398,257 325,330 264,379C203,428 142,466 79,495l0,45C142,569 203,608 264,657C325,705 398,779 485,878l80,0C519,763 454,660 371,567l1305,0C1593,660 1528,763 1482,878l80,0C1649,779 1722,705 1783,657C1844,608 1905,569 1968,540z" unicode="↔"></glyph><glyph d="M489,1463l45,0C563,1400 602,1339 651,1278C699,1217 772,1143 871,1056l0,-80C757,1022 653,1087 560,1171l0,-1306C653,-51 757,14 871,59l0,-79C772,-107 699,-180 651,-241C602,-302 563,-364 534,-427l-45,0C460,-364 422,-302 373,-241C324,-180 251,-107 152,-20l0,79C266,14 370,-51 463,-135l0,1306C370,1087 266,1022 152,976l0,80C251,1143 324,1217 373,1278C422,1339 460,1400 489,1463z" unicode="↕"></glyph><glyph d="M489,1463l45,0C563,1400 602,1339 651,1278C699,1217 772,1143 871,1056l0,-80C757,1022 653,1087 560,1171l0,-1306C653,-51 757,14 871,59l0,-79C772,-107 699,-180 651,-241C602,-302 563,-364 534,-427l-45,0C460,-364 422,-302 373,-241C324,-180 251,-107 152,-20l0,79C266,14 370,-51 463,-135l0,1306C370,1087 266,1022 152,976l0,80C251,1143 324,1217 373,1278C422,1339 460,1400 489,1463M154,-522l717,0l0,-98l-717,0z" unicode="↨"></glyph><glyph d="M362,1279l100,0l0,-1179l1181,0l0,-100l-1281,0z" unicode="∟"></glyph><glyph d="M302,0l-110,0l0,560C192,725 194,830 198,874C206,953 221,1018 242,1069C263,1120 297,1170 344,1219C391,1268 449,1307 518,1338C587,1369 660,1384 737,1384C812,1384 883,1369 951,1340C1019,1311 1078,1271 1128,1221C1178,1170 1214,1117 1235,1060C1256,1003 1270,933 1277,848C1280,815 1281,719 1281,560l0,-560l-109,0l0,566C1172,711 1170,805 1166,847C1159,921 1147,980 1130,1024C1113,1067 1086,1108 1050,1147C1013,1185 967,1216 911,1241C854,1266 796,1278 736,1278C687,1278 639,1270 593,1253C546,1236 507,1215 474,1190C441,1165 414,1139 394,1113C373,1086 358,1061 349,1038C332,998 320,949 313,892C306,834 302,725 302,566z" unicode="∩"></glyph><glyph d="M38,1046l1079,0l0,-82l-1079,0M38,720l1079,0l0,-82l-1079,0M38,393l1079,0l0,-81l-1079,0z" unicode="≡"></glyph><glyph d="M153,0l0,634l461,519l462,-519l0,-634M234,81l761,0l0,519l-381,427l-380,-427z" unicode="⌂"></glyph><glyph d="M1118,878l0,-81l-1001,0l0,-325l-79,0l0,406z" unicode="⌐"></glyph><glyph d="M691,-515l-145,0l0,1811C546,1442 576,1552 636,1626C695,1700 763,1737 838,1737C883,1737 917,1726 941,1705C964,1683 976,1657 976,1628C976,1601 968,1579 951,1562C934,1545 913,1536 888,1536C868,1536 849,1541 831,1551C819,1558 805,1573 790,1598C774,1622 758,1634 743,1634C732,1634 721,1630 712,1622C705,1617 701,1608 698,1595C693,1573 691,1527 691,1456z" unicode="⌠"></glyph><glyph d="M546,1737l145,0l0,-1811C691,-220 661,-330 602,-404C542,-478 474,-515 399,-515C354,-515 320,-504 297,-482C273,-461 261,-435 261,-406C261,-379 270,-357 287,-340C304,-323 324,-314 348,-314C369,-314 388,-319 407,-330C419,-337 433,-352 448,-376C463,-400 479,-412 494,-412C505,-412 516,-408 525,-401C532,-396 536,-386 539,-372C544,-351 546,-305 546,-234z" unicode="⌡"></glyph><glyph d="M1473,534l-1496,0l0,175l1496,0z" unicode="─"></glyph><glyph d="M638,-621l0,2485l175,0l0,-2485z" unicode="│"></glyph><glyph d="M1474,709l0,-175l-661,0l0,-1155l-175,0l0,1330z" unicode="┌"></glyph><glyph d="M637,534l-660,0l0,175l835,0l0,-1330l-175,0z" unicode="┐"></glyph><glyph d="M638,534l0,1330l175,0l0,-1155l661,0l0,-175z" unicode="└"></glyph><glyph d="M812,534l-835,0l0,175l660,0l0,1155l175,0z" unicode="┘"></glyph><glyph d="M638,-621l0,2485l175,0l0,-1155l661,0l0,-175l-661,0l0,-1155z" unicode="├"></glyph><glyph d="M637,-621l0,1155l-660,0l0,175l660,0l0,1155l175,0l0,-2485z" unicode="┤"></glyph><glyph d="M637,534l-660,0l0,175l1496,0l0,-175l-661,0l0,-1155l-175,0z" unicode="┬"></glyph><glyph d="M1473,534l-1496,0l0,175l660,0l0,1155l175,0l0,-1155l661,0z" unicode="┴"></glyph><glyph d="M637,534l-660,0l0,175l660,0l0,1155l175,0l0,-1155l661,0l0,-175l-661,0l0,-1155l-175,0z" unicode="┼"></glyph><glyph d="M1473,724l-1496,0l0,175l1496,0M1473,344l-1496,0l0,175l1496,0z" unicode="═"></glyph><glyph d="M828,-621l0,2485l175,0l0,-2485M448,-621l0,2485l175,0l0,-2485z" unicode="║"></glyph><glyph d="M638,-621l0,1520l836,0l0,-175l-661,0l0,-205l661,0l0,-175l-661,0l0,-965z" unicode="╒"></glyph><glyph d="M448,-621l0,1330l1026,0l0,-175l-471,0l0,-1155l-175,0l0,1140l-205,0l0,-1140z" unicode="╓"></glyph><glyph d="M623,-621l-175,0l0,1520l1025,0l0,-175l-850,0M1003,344l0,-965l-175,0l0,1140l645,0l0,-175z" unicode="╔"></glyph><glyph d="M637,344l-660,0l0,175l660,0l0,205l-660,0l0,175l835,0l0,-1520l-175,0z" unicode="╕"></glyph><glyph d="M447,-621l1,1155l-471,0l0,175l1025,0l0,-1330l-175,0l0,1155l-205,0l0,-1155z" unicode="╖"></glyph><glyph d="M827,-621l0,1345l-850,0l0,175l1025,0l0,-1520M447,344l-470,0l0,175l645,0l0,-1140l-175,0z" unicode="╗"></glyph><glyph d="M638,344l0,1520l175,0l0,-965l661,0l0,-175l-661,0l0,-205l661,0l0,-175z" unicode="╘"></glyph><glyph d="M1474,534l-1026,0l0,1330l175,0l0,-1155l205,0l0,1155l175,0l0,-1155l471,0z" unicode="╙"></glyph><glyph d="M623,1864l0,-1345l850,0l0,-175l-1025,0l0,1520M1003,899l470,0l0,-175l-645,0l0,1140l175,0z" unicode="╚"></glyph><glyph d="M812,344l-835,0l0,175l660,0l0,205l-660,0l0,175l660,0l0,965l175,0z" unicode="╛"></glyph><glyph d="M1002,534l-1025,0l0,175l470,0l0,1155l175,0l0,-1155l205,0l0,1155l175,0z" unicode="╜"></glyph><glyph d="M827,1864l175,0l0,-1520l-1025,0l0,175l850,0M447,899l0,965l175,0l0,-1140l-645,0l0,175z" unicode="╝"></glyph><glyph d="M638,-621l0,2485l175,0l0,-965l661,0l0,-175l-661,0l0,-205l661,0l0,-175l-661,0l0,-965z" unicode="╞"></glyph><glyph d="M828,-621l0,2485l175,0l0,-1155l471,0l0,-175l-471,0l0,-1155M448,-621l0,2485l175,0l0,-2485z" unicode="╟"></glyph><glyph d="M448,-621l0,2485l175,0l0,-2485M828,724l0,1140l175,0l0,-965l471,0l0,-175M828,-621l0,1140l646,0l0,-175l-471,0l0,-965z" unicode="╠"></glyph><glyph d="M637,344l-660,0l0,175l661,0l-1,205l-660,0l0,175l660,0l0,965l175,0l0,-2485l-175,0z" unicode="╡"></glyph><glyph d="M447,-621l1,1155l-471,0l0,175l470,0l0,1155l175,0l0,-2485M827,-621l0,2485l175,0l0,-2485z" unicode="╢"></glyph><glyph d="M827,-621l0,2485l175,0l0,-2485M622,1864l0,-1140l-645,0l0,175l470,0l0,965M447,344l-470,0l0,175l645,0l0,-1140l-175,0z" unicode="╣"></glyph><glyph d="M1473,724l-1496,0l0,175l1496,0M637,344l-660,0l0,175l1496,0l0,-175l-661,0l0,-965l-175,0z" unicode="╤"></glyph><glyph d="M447,-621l1,1155l-471,0l0,175l1496,0l0,-175l-471,0l0,-1155l-175,0l0,1140l-205,0l0,-1140z" unicode="╥"></glyph><glyph d="M1473,724l-1496,0l0,175l1496,0M447,344l-470,0l0,175l645,0l0,-1140l-175,0M827,-621l0,1140l646,0l0,-175l-471,0l0,-965z" unicode="╦"></glyph><glyph d="M1473,724l-1496,0l0,175l660,0l0,965l175,0l0,-965l661,0M1473,344l-1496,0l0,175l1496,0z" unicode="╧"></glyph><glyph d="M1473,534l-1496,0l0,175l470,0l0,1155l175,0l0,-1155l205,0l0,1155l175,0l0,-1155l471,0z" unicode="╨"></glyph><glyph d="M622,724l-645,0l0,175l470,0l0,965l175,0M1473,724l-646,0l0,1140l175,0l0,-965l471,0M1473,344l-1496,0l0,175l1496,0z" unicode="╩"></glyph><glyph d="M637,344l-660,0l0,175l660,0l0,205l-660,0l0,175l660,0l0,965l175,0l0,-965l661,0l0,-175l-661,0l0,-205l661,0l0,-175l-661,0l0,-965l-175,0z" unicode="╪"></glyph><glyph d="M447,-621l1,1155l-471,0l0,175l470,0l0,1155l175,0l0,-1155l205,0l0,1155l175,0l0,-1155l471,0l0,-175l-471,0l0,-1155l-175,0l0,1155l-205,0l0,-1155z" unicode="╫"></glyph><glyph d="M1003,899l470,0l0,-175l-645,0l0,1140l175,0M447,899l0,965l175,0l0,-1140l-645,0l0,175M447,344l-470,0l0,175l645,0l0,-1140l-175,0M1003,344l0,-965l-175,0l0,1140l645,0l0,-175z" unicode="╬"></glyph><glyph d="M1473,621l-1496,0l0,1243l1496,0z" unicode="▀"></glyph><glyph d="M1473,-621l-1496,0l0,1242l1496,0z" unicode="▄"></glyph><glyph d="M-23,-621l0,2485l1496,0l0,-2485z" unicode="█"></glyph><glyph d="M-23,-621l0,2485l748,0l0,-2485z" unicode="▌"></glyph><glyph d="M726,-621l0,2485l748,0l0,-2485z" unicode="▐"></glyph><glyph d="M102,1864l125,0l0,-125l-125,0M600,1864l125,0l0,-125l-125,0M1099,1864l125,0l0,-125l-125,0M351,1615l125,0l0,-125l-125,0M850,1615l124,0l0,-125l-124,0M1348,1615l125,0l0,-125l-125,0M1099,1366l125,0l0,-125l-125,0M600,1366l125,0l0,-125l-125,0M102,1366l125,0l0,-125l-125,0M1348,1116l125,0l0,-124l-125,0M850,1116l124,0l0,-124l-124,0M351,1116l125,0l0,-124l-125,0M102,867l125,0l0,-125l-125,0M600,867l125,0l0,-125l-125,0M1099,867l125,0l0,-125l-125,0M1348,618l125,0l0,-125l-125,0M850,618l124,0l0,-125l-124,0M351,618l125,0l0,-125l-125,0M102,369l125,0l0,-125l-125,0M600,369l125,0l0,-125l-125,0M1099,369l125,0l0,-125l-125,0M351,119l125,0l0,-124l-125,0M850,119l124,0l0,-124l-124,0M1348,119l125,0l0,-124l-125,0M1099,-130l125,0l0,-125l-125,0M600,-130l125,0l0,-125l-125,0M102,-130l125,0l0,-125l-125,0M351,-379l125,0l0,-125l-125,0M850,-379l124,0l0,-125l-124,0M1348,-379l125,0l0,-125l-125,0z" unicode="░"></glyph><glyph d="M103,1864l124,0l0,-125l-124,0M352,1864l124,0l0,-125l-124,0M601,1864l125,0l0,-125l-125,0M850,1864l125,0l0,-125l-125,0M1100,1864l124,0l0,-125l-124,0M1349,1864l124,0l0,-125l-124,0M-22,1615l125,0l0,-125l-125,0M227,1615l125,0l0,-125l-125,0M476,1615l125,0l0,-125l-125,0M726,1615l124,0l0,-125l-124,0M975,1615l125,0l0,-125l-125,0M1224,1615l125,0l0,-125l-125,0M103,1366l124,0l0,-125l-124,0M352,1366l124,0l0,-125l-124,0M601,1366l125,0l0,-125l-125,0M850,1366l125,0l0,-125l-125,0M1100,1366l124,0l0,-125l-124,0M1349,1366l124,0l0,-125l-124,0M227,1116l125,0l0,-124l-125,0M476,1116l125,0l0,-124l-125,0M726,1116l124,0l0,-124l-124,0M975,1116l125,0l0,-124l-125,0M1224,1116l125,0l0,-124l-125,0M-22,1116l125,0l0,-124l-125,0M103,867l124,0l0,-125l-124,0M352,867l124,0l0,-125l-124,0M601,867l125,0l0,-125l-125,0M850,867l125,0l0,-125l-125,0M1100,867l124,0l0,-125l-124,0M1349,867l124,0l0,-125l-124,0M-22,618l125,0l0,-125l-125,0M476,618l125,0l0,-125l-125,0M726,618l124,0l0,-125l-124,0M975,618l125,0l0,-125l-125,0M1224,618l125,0l0,-125l-125,0M227,618l125,0l0,-125l-125,0M1349,369l124,0l0,-125l-124,0M1100,369l124,0l0,-125l-124,0M850,369l125,0l0,-125l-125,0M601,369l125,0l0,-125l-125,0M352,369l124,0l0,-125l-124,0M103,369l124,0l0,-125l-124,0M-22,119l125,0l0,-124l-125,0M227,119l125,0l0,-124l-125,0M476,119l125,0l0,-124l-125,0M726,119l124,0l0,-124l-124,0M975,119l125,0l0,-124l-125,0M1224,119l125,0l0,-124l-125,0M1349,-130l124,0l0,-125l-124,0M1100,-130l124,0l0,-125l-124,0M850,-130l125,0l0,-125l-125,0M601,-130l125,0l0,-125l-125,0M352,-130l124,0l0,-125l-124,0M103,-130l124,0l0,-125l-124,0M-22,-379l125,0l0,-125l-125,0M227,-379l125,0l0,-125l-125,0M476,-379l125,0l0,-125l-125,0M726,-379l124,0l0,-125l-124,0M975,-379l125,0l0,-125l-125,0M1224,-379l125,0l0,-125l-125,0z" unicode="▒"></glyph><glyph d="M1494,1490l0,-374l-124,0l0,-124l124,0l0,-374l-124,0l0,-125l124,0l0,-374l-124,0l0,-124l124,0l0,-374l-124,0l0,-125l124,0l0,-124l-1495,0l0,373l125,0l0,125l-125,0l0,374l125,0l0,125l-125,0l0,373l125,0l0,125l-125,0l0,374l125,0l0,125l-125,0l0,373l125,0l0,125l124,0l0,-125l125,0l0,125l124,0l0,-125l125,0l0,125l125,0l0,-125l124,0l0,125l125,0l0,-125l125,0l0,125l124,0l0,-125l125,0l0,125l124,0l0,-249l-124,0l0,-125M124,1615l0,-125l124,0l0,125M373,1615l0,-125l124,0l0,125M622,1615l0,-125l125,0l0,125M871,1615l0,-125l125,0l0,125M1121,1615l0,-125l124,0l0,125M1370,1366l-125,0l0,-125l125,0M1121,1366l-125,0l0,-125l125,0M871,1366l-124,0l0,-125l124,0M622,1366l-125,0l0,-125l125,0M373,1366l-125,0l0,-125l125,0M124,1116l0,-124l124,0l0,124M373,1116l0,-124l124,0l0,124M622,1116l0,-124l125,0l0,124M871,1116l0,-124l125,0l0,124M1121,1116l0,-124l124,0l0,124M373,867l-125,0l0,-125l125,0M497,867l0,-125l125,0l0,125M747,867l0,-125l124,0l0,125M996,867l0,-125l125,0l0,125M1245,867l0,-125l125,0l0,125M124,618l0,-125l124,0l0,125M622,618l0,-125l125,0l0,125M497,493l0,125l-124,0l0,-125M871,618l0,-125l125,0l0,125M1121,618l0,-125l124,0l0,125M1370,244l0,125l-125,0l0,-125M1121,244l0,125l-125,0l0,-125M871,244l0,125l-124,0l0,-125M622,244l0,125l-125,0l0,-125M373,244l0,125l-125,0l0,-125M124,119l0,-124l124,0l0,124M373,119l0,-124l124,0l0,124M622,119l0,-124l125,0l0,124M871,119l0,-124l125,0l0,124M1121,119l0,-124l124,0l0,124M1370,-255l0,125l-125,0l0,-125M1121,-255l0,125l-125,0l0,-125M871,-255l0,125l-124,0l0,-125M622,-255l0,125l-125,0l0,-125M373,-255l0,125l-125,0l0,-125M124,-379l0,-125l124,0l0,125M373,-379l0,-125l124,0l0,125M622,-379l0,-125l125,0l0,125M871,-379l0,-125l125,0l0,125M1121,-379l0,-125l124,0l0,125z" unicode="▓"></glyph><glyph d="M146,944l944,0l0,-944l-944,0z" unicode="■"></glyph><glyph d="M0,703l2047,0l0,-386l-2047,0z" unicode="▬"></glyph><glyph d="M304,0l710,1419l710,-1419z" unicode="▲"></glyph><glyph d="M288,1417l1451,-724l-1451,-724z" unicode="►"></glyph><glyph d="M1724,1388l-710,-1419l-710,1419z" unicode="▼"></glyph><glyph d="M1739,1417l0,-1448l-1451,724z" unicode="◄"></glyph><glyph d="M619,1018C692,1018 764,999 835,961C906,923 961,869 1000,798C1039,727 1059,654 1059,578C1059,456 1016,352 930,266C844,180 740,137 619,137C497,137 393,180 307,266C221,352 178,456 178,578C178,655 198,728 237,799C276,869 331,923 402,961C473,999 545,1018 619,1018M619,942C557,942 497,926 439,895C381,864 336,819 303,760C270,701 254,641 254,578C254,477 290,391 361,320C432,249 518,213 619,213C720,213 806,249 877,320C948,391 983,477 983,578C983,641 967,701 934,760C901,819 856,864 798,895C740,926 680,942 619,942z" unicode="○"></glyph></font>
</svg>
